Today is a free download without charge Download

Облачный атлас / Cloud Atlas (Лана Вачовски / Lana Wachowski, Том Тыквер / Tom Tykwer, Энди Вачовски / Andy Wachowski) [2012, Германия, США, Гонконг, Сингапур,фантастика, драма, детектив, BDRip 720p] Dub + AVO (Ю.Сербин) + AVO (М.Иванов) Sub Rus,Eng

Reply to topic
 
Author
Message

Omen ®

Longevity: 8 years 5 months

Posts: 181087

Торрент-статистика

Post 10-Jun-2013 21:00

[Quote]

Облачный атлас / Cloud Atlas / US Transfer Страна: Германия, США, Гонконг, Сингапур
Студия: Cloud Atlas Productions, X-Filme Creative Pool, Anarchos Pictures
Жанр: фантастика, драма, детектив
Год выпуска: 2012
Продолжительность: 02:51:57
Перевод 1: Профессиональный (дублированный)Blu-ray
Перевод 2: Авторский (одноголосый закадровый)Ю.Сербин
Перевод 3: Авторский (одноголосый закадровый)М.Иванов
Cубтитры: русские,английские(forced,full)
Оригинальная аудиодорожка: английский
Режиссер: Лана Вачовски / Lana Wachowski, Том Тыквер / Tom Tykwer, Энди Вачовски / Andy Wachowski
В ролях: Том Хэнкс, Холли Берри, Джим Броудбент, Хьюго Уивинг, Джим Стёрджесс, Пэ Дуна, Бен Уишоу, Джеймс Д’Арси, Жу Жу, Кит Дэвид
Описание: Шесть историй - пять реинкарнаций, происходящих в разное время, тесно переплетаются между собой...

Тип релиза: BDRip 720p[DON]
Контейнер: MKV
Видео: AVC,1280x534,8933 Kbps, 23.976 fps
Аудио 1: Russian: 48 kHz, AC3, 3/2 (L,C,R,l,r) LFE ch, ~640.00 kbps avg |Blu-ray |
Аудио 2: Russian: 48 kHz, AC3, 3/2 (L,C,R,l,r) LFE ch, ~640.00 kbps avg |Ю.Сербин|
Аудио 3: Russian: 48 kHz, AC3, 3/2 (L,C,R,l,r) LFE ch, ~640.00 kbps avg |Михаил Иванов|
Аудио 4: English: 48 kHz, AC3, 3/2 (L,C,R,l,r) LFE ch, ~640.00 kbps avg|Original
Чаптеры:есть

x264 log

x264 [info]: frame I:2383 Avg QP:15.11 size:155521
x264 [info]: frame P:50834 Avg QP:16.80 size: 74131
x264 [info]: frame B:194154 Avg QP:18.25 size: 37966
x264 [info]: consecutive B-frames: 2.3% 2.0% 5.3% 23.3% 12.3% 29.5% 7.2% 15.9% 2.0% 0.2%

Доп.информация

Перевод Ю.Сербина выкуплен рамках сервиса "Озвучивание". Спонсоры: alexdeath, denismgn1987, Luka69, ultrajeka, Dervish, Baron0580, GKillah, а также пользователи форума e180.ru: Daniel Rock, dr_akula, ilbilb, Ramis, пуля, tide, safreks, Ken, Slimka, Serene, KINOGON, dir, Tio, -NoMan-.
Перевод у Михаила Иванова осуществлен в рамках совместного проекта двух сайтов, Е180 и СПАМ благодаря финансовому участию следующих спонсоров:
1.Daniel Rock
2.Nadoelo(Е-180)
3.Vladimir(Е-180)
4.Диммон(Е-180)
5.инкогнито
6.tasoR
7.Dr. Destructo
8.karantin66
9.Letyoha3
10.ultrajeka2
11._shurik_
12.николай1982
13.zaq-qaz(Е-180)

MediaInfo

General
Unique ID : 221046142783091089204243703818914431800 (0xA64BF044A9E94E0786AE8796211D0338)
Complete name : D:\Cloud.Atlas.2012.720p.BluRay.DD5.1.x264-Talian-.mkv
Format : Matroska
Format version : Version 2
File size : 13.6 GiB
Duration : 2h 51mn
Overall bit rate : 11.3 Mbps
Movie name : -Talian-
Encoded date : UTC 2013-06-10 15:08:51
Writing application : mkvmerge v5.7.0 ('The Whirlwind') built on Jul 8 2012 20:08:51
Writing library : libebml v1.2.3 libmatroska v1.3.0
Video
ID : 1
Format : AVC
Format/Info : Advanced Video Codec
Format profile : [email protected]
Format settings, CABAC : Yes
Format settings, ReFrames : 12 frames
Codec ID : V_MPEG4/ISO/AVC
Duration : 2h 51mn
Bit rate : 8 933 Kbps
Width : 1 280 pixels
Height : 534 pixels
Display aspect ratio : 2.40:1
Frame rate : 23.976 fps
Color space : YUV
Chroma subsampling : 4:2:0
Bit depth : 8 bits
Scan type : Progressive
Bits/(Pixel*Frame) : 0.545
Stream size : 10.3 GiB (75%)
Title : DON
Writing library : x264 core 120 r2164 656 2ff844c
Encoding settings : cabac=1 / ref=12 / deblock=1:-3:-3 / analyse=0x3:0x133 / me=umh / subme=10 / psy=1 / fade_compensate=0.00 / psy_rd=1.00:0.00 / mixed_ref=1 / me_range=32 / chroma_me=1 / trellis=2 / 8x8dct=1 / cqm=0 / deadzone=21,11 / fast_pskip=0 / chroma_qp_offset=-2 / threads=3 / sliced_threads=0 / nr=0 / decimate=0 / interlaced=0 / bluray_compat=0 / constrained_intra=0 / fgo=0 / bframes=9 / b_pyramid=2 / b_adapt=2 / b_bias=0 / direct=3 / weightb=1 / open_gop=0 / weightp=2 / keyint=250 / keyint_min=23 / scenecut=40 / intra_refresh=0 / rc=2pass / mbtree=0 / bitrate=8933 / ratetol=1.0 / qcomp=0.60 / qpmin=0 / qpmax=69 / qpstep=4 / cplxblur=20.0 / qblur=0.5 / ip_ratio=1.30 / pb_ratio=1.20 / aq=3:0.80 / zones=237340,247371,b=0.5
Language : English
Default : No
Forced : No
Audio #1
ID : 2
Format : AC-3
Format/Info : Audio Coding 3
Mode extension : CM (complete main)
Format settings, Endianness : Big
Codec ID : A_AC3
Duration : 2h 51mn
Bit rate mode : Constant
Bit rate : 640 Kbps
Channel(s) : 6 channels
Channel positions : Front: L C R, Side: L R, LFE
Sampling rate : 48.0 KHz
Bit depth : 16 bits
Compression mode : Lossy
Stream size : 787 MiB (6%)
Title : DUB-Blu-ray
Language : Russian
Default : Yes
Forced : No
Audio #2
ID : 3
Format : AC-3
Format/Info : Audio Coding 3
Mode extension : CM (complete main)
Format settings, Endianness : Big
Codec ID : A_AC3
Duration : 2h 51mn
Bit rate mode : Constant
Bit rate : 640 Kbps
Channel(s) : 6 channels
Channel positions : Front: L C R, Side: L R, LFE
Sampling rate : 48.0 KHz
Bit depth : 16 bits
Compression mode : Lossy
Stream size : 787 MiB (6%)
Title : AVO-Ю.Сербин
Language : Russian
Default : No
Forced : No
Audio #3
ID : 4
Format : AC-3
Format/Info : Audio Coding 3
Mode extension : CM (complete main)
Format settings, Endianness : Big
Codec ID : A_AC3
Duration : 2h 51mn
Bit rate mode : Constant
Bit rate : 640 Kbps
Channel(s) : 6 channels
Channel positions : Front: L C R, Side: L R, LFE
Sampling rate : 48.0 KHz
Bit depth : 16 bits
Compression mode : Lossy
Stream size : 787 MiB (6%)
Title : AVO-Иванов
Language : Russian
Default : No
Forced : No
Audio #4
ID : 5
Format : AC-3
Format/Info : Audio Coding 3
Mode extension : CM (complete main)
Format settings, Endianness : Big
Codec ID : A_AC3
Duration : 2h 51mn
Bit rate mode : Constant
Bit rate : 640 Kbps
Channel(s) : 6 channels
Channel positions : Front: L C R, Side: L R, LFE
Sampling rate : 48.0 KHz
Bit depth : 16 bits
Compression mode : Lossy
Stream size : 787 MiB (6%)
Title : Original
Language : English
Default : No
Forced : No
Text #1
ID : 6
Format : UTF-8
Codec ID : S_TEXT/UTF8
Codec ID/Info : UTF-8 Plain Text
Title : SUb
Language : Russian
Default : No
Forced : No
Text #2
ID : 7
Format : UTF-8
Codec ID : S_TEXT/UTF8
Codec ID/Info : UTF-8 Plain Text
Title : Sub-Forced
Language : English
Default : Yes
Forced : No
Text #3
ID : 8
Format : UTF-8
Codec ID : S_TEXT/UTF8
Codec ID/Info : UTF-8 Plain Text
Title : Sub
Language : English
Default : No
Forced : No
Menu
00:00:00.000 : :00:00:00.000
00:09:20.518 : :00:09:20.518
00:19:06.354 : :00:19:06.354
00:31:27.969 : :00:31:27.969
00:39:53.016 : :00:39:53.016
00:52:32.941 : :00:52:32.941
01:01:27.309 : :01:01:27.309
01:12:16.874 : :01:12:16.874
01:24:08.210 : :01:24:08.210
01:34:50.476 : :01:34:50.476
01:46:30.467 : :01:46:30.467
01:55:37.889 : :01:55:37.889
02:05:44.829 : :02:05:44.829
02:15:52.061 : :02:15:52.061
02:25:53.662 : :02:25:53.662
02:35:45.253 : :02:35:45.253
02:42:35.621 : :02:42:35.621

Скриншоты

Source vs Encode






Сравнение исходников

BRA AVC @ 30.5 Mbps vs CEE AVC @ 22.0 Mbps vs GER AVC @23.0 Mbps vs RUS AVC @ 26.0 vs USA AVC @ 22.0 Mbps (this release)


Other forum [Profile] [PM]
Display posts from previous:    
Reply to topic

The time now is: Today 12:08

All times are GMT + 3 Hours



You cannot post new topics in this forum
You cannot reply to topics in this forum
You cannot edit your posts in this forum
You cannot delete your posts in this forum
You cannot vote in polls in this forum
You cannot attach files in this forum
You cannot download files in this forum