Today is a free download without charge Download

The Black Keys • New Orleans Jazz and Heritage Festival [2013, Garage Rock, Blues Rock, HDTVRip 1080i]

Reply to topic
 
Author
Message

Omen ®

Longevity: 8 years 4 months

Posts: 181087

Торрент-статистика

Post 10-Jun-2013 21:00

[Quote]

The Black Keys
- New Orleans Jazz and Heritage Festival -


Жанр: Garage Rock, Blues Rock
Продолжительность: 00:59:32
Год выпуска: 2013-05-05

Треклист

01. Intro
02. Howlin' For You
03. Next Girl
04. Run Right Back
05. Same Old Thing
06. Dead And Gone
07. Gold On The Ceiling
08. Thickfreakness
09. Girl Is On My Mind
10. Your Touch
11. Little Black Submarines
12. Money Maker
13. Strange Times
14. Ten Cent Pistol
15. She's Long Gone
16. Tighten Up
17. Lonely Boy
18. I Got Mine

The Black Keys

The Black Keys — американская рок-группа, сформированная в 2001 году в городе Акрон. Играет музыку в жанрах блюз-рок, гаражный рок и инди-рок. На протяжении всего своего существования группа состоит из двух человек: Дэна Ауэрбаха (вокал, гитара) и Патрика Карни (ударные). По состоянию на октябрь 2011 года, группа продала более 2 миллионов копий альбомов в Соединенных Штатах
Качество: HDTVRip 1080i
Контейнер: MKV
Видео кодек: H.264
Аудио кодек: AC3
Видео: MPEG4 Video (H264) 1920x1080 29.97fps 8323 Kbps
Аудио: Dolby AC3 48000Hz 6ch

Отчёт MediaInfo / BDInfo

GeneralUnique ID : 185177328645782571165249132206252024756 (0x8B4FDB31A177BEF59D514280B816E3B4)Complete name : E:\The Black Keys - New Orleans Jazz and Heritage Festival - 2013-05-05.mkvFormat : MatroskaFormat version : Version 2File size : 3.69 GiBDuration : 59mn 32sOverall bit rate : 8 884 KbpsEncoded date : UTC 2013-06-10 10:21:30Writing application : mkvmerge v6.2.0 ('Promised Land') built on Apr 28 2013 12:22:01Writing library : libebml v1.3.0 + libmatroska v1.4.0
VideoID : 1Format : AVCFormat/Info : Advanced Video CodecFormat profile : [email protected] settings, CABAC : YesFormat settings, ReFrames : 4 framesCodec ID : V_MPEG4/ISO/AVCDuration : 59mn 32sBit rate : 8 323 KbpsWidth : 1 920 pixelsHeight : 1 080 pixelsDisplay aspect ratio : 16:9Frame rate mode : ConstantFrame rate : 29.970 fpsStandard : ComponentColor space : YUVChroma subsampling : 4:2:0Bit depth : 8 bitsScan type : MBAFFBits/(Pixel*Frame) : 0.134Stream size : 3.46 GiB (94%)Default : YesForced : NoColor primaries : BT.709Transfer characteristics : BT.709Matrix coefficients : BT.709
AudioID : 2Format : AC-3Format/Info : Audio Coding 3Mode extension : CM (complete main)Format settings, Endianness : BigCodec ID : A_AC3Duration : 59mn 32sBit rate mode : ConstantBit rate : 384 KbpsChannel(s) : 6 channelsChannel positions : Front: L C R, Side: L R, LFESampling rate : 48.0 KHzBit depth : 16 bitsCompression mode : LossyStream size : 164 MiB (4%)Default : YesForced : No
Other forum [Profile] [PM]
Similar theme
Forum Topic Author Torrent Replies Last Post
./templates/default/images/folder_dl.gif Metal (Black Metal) [CD] Vergelmer - Light The Black Flame - 1997, FLAC (image+.cue), lossless Omen
1 | 0

0 | 2103

20

2015-03-30 15:03
Omen Latest
Display posts from previous:    
Reply to topic

The time now is: Today 04:53

All times are GMT + 3 Hours



You cannot post new topics in this forum
You cannot reply to topics in this forum
You cannot edit your posts in this forum
You cannot delete your posts in this forum
You cannot vote in polls in this forum
You cannot attach files in this forum
You cannot download files in this forum