Today is a free download without charge Download

Мама / Mama (Андрес Мускетти) (Ужасы, Фэнтези, Триллер, 2013) BDRip [1080p]

Reply to topic
 
Author
Message

Omen ®

Longevity: 8 years 5 months

Posts: 181087

Торрент-статистика

Post 10-Jun-2013 18:48

[Quote]

Мама / Mama
«Никогда не оставит тебя»
- Русское название: Мама
Оригинальное название: Mama
Год выпуска: 2013
Производство: Испания, Канада | Toma 78, De Milo, Complete Post Accounting
Жанр: Ужасы, Фэнтези, Триллер
Перевод: Дублированный + VO Zamez по субтитрам (Daria_N)
Субтитры: Вшитые отключаемые
Язык субтитров: Русский (Forced, Full, iTunes), Английский (Full, SDH, SDH-COLORED)-Дата мировой премьеры: 17 января 2013
Дата российской премьеры: 7 марта 2013, «UPI»
Дата выхода DVD релиза: 20 июня 2013, «Двадцатый Век Фокс СНГ»
Дата выхода Blu-Ray релиза: 20 июня 2013, «Двадцатый Век Фокс СНГ»-Режиссер: Андрес Мускетти-Продюсер: Дж. Майлз Дэйл, Барбара Мускетти, Гильермо дель Торо-Актеры: Джессика Честейн, Николай Костер-Вальдау, Меган Чарпентье, Изабель Нелисс, Дэниэл Кэш, Хавьер Ботет, Джейн Моффат, Морган МакГарри, Дэвид Фокс, Доминик Куццокреа ...-Роли дублировали: Илья Исаев, Константин Карасик, Маша Емельянова, Надежда Подъяпольская, Наталья Грачева ...-Описание фильма:
В заброшенной хижине в чаще леса найдены две девочки. Таинственным образом они прожили в пустом доме пять лет. Найденных сирот забирают единственные родственники, молодая супружеская пара. Но девочки не одиноки, у них есть мама, и она приходит из тьмы…-
Продолжительность: 01:40:06
Качество видео: BDRip 1080p [Видеоряд-hdclub]
Видеокодек: MPEG-4 AVC/H.264
Битрейт видео: ~14,0 Мбит/сек
Размер кадра: 1920 x 1040 (1.846) at 23.976 fps : 0.292 Bits/Pixel
Аудиокодек: AC3 2.0,5.1 | DTS
Аудио #1: DTS 768 Кбит/сек (6ch), 48,0 КГц, 24 бит [Русский, Дубляж]
Аудио #2: AC3 448 Кбит/сек (6ch), 48,0 КГц, 16 бит [Русский, VO Zamez]
Аудио #3: DTS 1510 Кбит/сек (6ch), 48,0 КГц, 24 бит [Английский]
Аудио #4: 192 Кбит/сек (2ch), 48,0 КГц, 16 бит [Английский-Descriptive]
Аудио #5: 192 Кбит/сек (2ch), 48,0 КГц, 16 бит [Английский-Commentary with Director/Co-Writer Andy Muschietti And Producer/Co-Writer Barbara Muschietti]
Дополнительно: Сохранены оригинальные чаптеры как на Blu-ray
Релиз:

Трейлер / Ролик

Знаете ли вы, что...

• Когда Аннабель слышит, как девочки играют, она идет в их комнату, чтобы сказать, что уже поздно и пора ложиться спать, но на улице еще светло. В фильме также есть еще около 3-х сцен, в которых по сюжету должна быть ночь, а за окнами на улице день.
• Когда Лили уговаривает Викторию пойти к Маме, положение ее одеяла меняется после смены кадра.
• У врача ноутбук Sony Vaio (с операционной системой Windows), однако, когда Аннебель берет его, чтобы увидеть результаты исследований, то там оказывается Mac OS.
• Когда маленькая Виктория впервые заходит в хижину, она шагает по снегу, который прилипает к ее ногам, и можно заметить, что на самом деле это белый ковер.
• Когда Аннабель копается в компьютере доктора Дрейфусса, в названии папки с его исследованиями есть опечатка — «Reasearch» (а правильно «Research»).
• Лукас арендует автомобиль в конторе под названием «Enterprise», но у машины не видно штрих-кода на окне. Все машины этой компании обладают штрих-кодами для ускорения процедуры регистрации.

MediaInfo:

Код:
Полное имя                               : H:\Мама  Mama (2013) 1080p BDRip\Mama.2013.D.BDRip.1080p.mkv
Формат                                   : Matroska
Версия формата                           : Version 2
Размер файла                             : 11,9 Гбайт
Продолжительность                        : 1 ч. 40 м.
Общий поток                              : 17,1 Мбит/сек
Название фильма                          : Mama.2013.D.BDRip.1080p
Дата кодирования                         : UTC 2013-06-09 23:00:03
Программа кодирования                    : mkvmerge v2.9.9 ('Tutu') built on Nov 25 2009 21:13:32
Библиотека кодирования                   : libebml v0.7.9 + libmatroska v0.8.1
Attachment                               : Yes / Yes / Yes / Yes / Yes
Видео
Идентификатор                            : 1
Формат                                   : AVC
Формат/Информация                        : Advanced Video Codec
Профиль формата                          : [url=mailto:[email protected]][email protected][/url]
Параметр CABAC формата                   : Да
Параметр ReFrames формата                : 4 кадра
Идентификатор кодека                     : V_MPEG4/ISO/AVC
Продолжительность                        : 1 ч. 40 м.
Битрейт                                  : 14,0 Мбит/сек
Ширина                                   : 1920 пикселей
Высота                                   : 1040 пикселей
Соотношение сторон                       : 1,85:1
Режим частоты кадров                     : Постоянный
Частота кадров                           : 23,976 кадра/сек
Цветовое пространство                    : YUV
Субдискретизация насыщенности            : 4:2:0
Битовая глубина                          : 8 бит
Тип развёртки                            : Прогрессивная
Бит/(Пиксели*Кадры)                      : 0.292
Размер потока                            : 9,54 Гбайт (80%)
Заголовок                                : -=/*spam*/=-
Библиотека кодирования                   : x264 core 130 r2273kMod b3065e6
Настройки программы                      : cabac=1 / ref=4 / deblock=1:-3:-3 / analyse=0x3:0x113 / me=umh / subme=11 / psy=1 / fade_compensate=0.00 / psy_rd=1.00:0.00 / mixed_ref=1 / me_range=48 / chroma_me=1 / trellis=2 / 8x8dct=1 / cqm=0 / deadzone=21,11 / fast_pskip=0 / chroma_qp_offset=-2 / threads=12 / lookahead_threads=2 / sliced_threads=0 / nr=0 / decimate=1 / interlaced=0 / bluray_compat=0 / constrained_intra=0 / bframes=9 / b_pyramid=2 / b_adapt=2 / b_bias=0 / direct=3 / weightb=1 / open_gop=0 / weightp=2 / keyint=250 / keyint_min=23 / scenecut=40 / intra_refresh=0 / rc_lookahead=40 / rc=2pass / mbtree=0 / bitrate=14000 / ratetol=1.0 / qcomp=0.75 / qpmin=0 / qpmax=69 / qpstep=4 / cplxblur=20.0 / qblur=0.5 / vbv_maxrate=50000 / vbv_bufsize=62500 / nal_hrd=none / ip_ratio=1.30 / pb_ratio=1.20 / aq=1:0.80
Язык                                     : English
Default                                  : Да
Forced                                   : Нет
Основные цвета                           : BT.709
Характеристики трансфера                 : BT.709
Коэффициенты матрицы                     : BT.709
Аудио #1
Идентификатор                            : 2
Формат                                   : DTS
Формат/Информация                        : Digital Theater Systems
Режим                                    : 16
Параметр Endianness формата              : Big
Идентификатор кодека                     : A_DTS
Продолжительность                        : 1 ч. 40 м.
Вид битрейта                             : Постоянный
Битрейт                                  : 768 Кбит/сек
Каналы                                   : 6 каналов
Расположение каналов                     : Front: L C R, Side: L R, LFE
Частота                                  : 48,0 КГц
Битовая глубина                          : 24 бит
Метод сжатия                             : С потерями
Размер потока                            : 550 Мбайт (4%)
Заголовок                                : DTS.768.Kbps (6ch) Russian
Язык                                     : Russian
Default                                  : Да
Forced                                   : Нет
Аудио #2
Идентификатор                            : 3
Формат                                   : AC-3
Формат/Информация                        : Audio Coding 3
Расширение режима                        : CM (complete main)
Параметр Endianness формата              : Big
Идентификатор кодека                     : A_AC3
Продолжительность                        : 1 ч. 40 м.
Вид битрейта                             : Постоянный
Битрейт                                  : 448 Кбит/сек
Каналы                                   : 6 каналов
Расположение каналов                     : Front: L C R, Side: L R, LFE
Частота                                  : 48,0 КГц
Битовая глубина                          : 16 бит
Метод сжатия                             : С потерями
Размер потока                            : 321 Мбайт (3%)
Заголовок                                : AC3.448.Kbps (6ch) Russian [Zamez]
Язык                                     : Russian
Default                                  : Нет
Forced                                   : Нет
Аудио #3
Идентификатор                            : 4
Формат                                   : DTS
Формат/Информация                        : Digital Theater Systems
Режим                                    : 16
Параметр Endianness формата              : Big
Идентификатор кодека                     : A_DTS
Продолжительность                        : 1 ч. 40 м.
Вид битрейта                             : Постоянный
Битрейт                                  : 1509 Кбит/сек
Каналы                                   : 6 каналов
Расположение каналов                     : Front: L C R, Side: L R, LFE
Частота                                  : 48,0 КГц
Битовая глубина                          : 24 бит
Метод сжатия                             : С потерями
Задержка видео                           : 11 мс.
Размер потока                            : 1,06 Гбайт (9%)
Заголовок                                : DTS.1510.Kbps (6ch) English
Язык                                     : English
Default                                  : Нет
Forced                                   : Нет
Аудио #4
Идентификатор                            : 5
Формат                                   : AC-3
Формат/Информация                        : Audio Coding 3
Профиль формата                          : Dolby Digital
Расширение режима                        : CM (complete main)
Параметр Endianness формата              : Big
Идентификатор кодека                     : A_AC3
Продолжительность                        : 1 ч. 40 м.
Вид битрейта                             : Постоянный
Битрейт                                  : 192 Кбит/сек
Каналы                                   : 2 канала
Расположение каналов                     : Front: L R
Частота                                  : 48,0 КГц
Битовая глубина                          : 16 бит
Метод сжатия                             : С потерями
Размер потока                            : 137 Мбайт (1%)
Заголовок                                : AC3 2.0 @ 192 kbps - Descriptive
Язык                                     : English
Default                                  : Нет
Forced                                   : Нет
Аудио #5
Идентификатор                            : 6
Формат                                   : AC-3
Формат/Информация                        : Audio Coding 3
Профиль формата                          : Dolby Digital
Расширение режима                        : CM (complete main)
Параметр Endianness формата              : Big
Идентификатор кодека                     : A_AC3
Продолжительность                        : 1 ч. 40 м.
Вид битрейта                             : Постоянный
Битрейт                                  : 192 Кбит/сек
Каналы                                   : 2 канала
Расположение каналов                     : Front: L R
Частота                                  : 48,0 КГц
Битовая глубина                          : 16 бит
Метод сжатия                             : С потерями
Размер потока                            : 137 Мбайт (1%)
Заголовок                                : AC3 2.0 @ 192 kbps - Commentary with Director/Co-Writer Andy Muschietti And Producer/Co-Writer Barbara Muschietti
Язык                                     : English
Default                                  : Нет
Forced                                   : Нет
Текст #1
Идентификатор                            : 7
Формат                                   : UTF-8
Идентификатор кодека                     : S_TEXT/UTF8
Идентификатор кодека/Информация          : UTF-8 Plain Text
Заголовок                                : Russian (Forced)
Язык                                     : Russian
Default                                  : Да
Forced                                   : Нет
Текст #2
Идентификатор                            : 8
Формат                                   : UTF-8
Идентификатор кодека                     : S_TEXT/UTF8
Идентификатор кодека/Информация          : UTF-8 Plain Text
Заголовок                                : Russian (Full)
Язык                                     : Russian
Default                                  : Нет
Forced                                   : Нет
Текст #3
Идентификатор                            : 9
Формат                                   : UTF-8
Идентификатор кодека                     : S_TEXT/UTF8
Идентификатор кодека/Информация          : UTF-8 Plain Text
Заголовок                                : English (Full)
Язык                                     : English
Default                                  : Нет
Forced                                   : Нет
Текст #4
Идентификатор                            : 10
Формат                                   : UTF-8
Идентификатор кодека                     : S_TEXT/UTF8
Идентификатор кодека/Информация          : UTF-8 Plain Text
Заголовок                                : English (SDH)
Язык                                     : English
Default                                  : Нет
Forced                                   : Нет
Текст #5
Идентификатор                            : 11
Формат                                   : UTF-8
Идентификатор кодека                     : S_TEXT/UTF8
Идентификатор кодека/Информация          : UTF-8 Plain Text
Заголовок                                : English (SDH-COLORED)
Язык                                     : English
Default                                  : Нет
Forced                                   : Нет
Меню
00:00:00.000                             : en:00:00:00.000
00:04:57.881                             : en:00:04:57.881
00:11:47.165                             : en:00:11:47.165
00:17:33.761                             : en:00:17:33.761
00:20:51.417                             : en:00:20:51.417
00:26:08.734                             : en:00:26:08.734
00:32:02.796                             : en:00:32:02.796
00:36:53.169                             : en:00:36:53.169
00:40:12.535                             : en:00:40:12.535
00:44:43.222                             : en:00:44:43.222
00:47:35.186                             : en:00:47:35.186
00:53:04.390                             : en:00:53:04.390
00:58:55.282                             : en:00:58:55.282
01:04:38.166                             : en:01:04:38.166
01:11:00.339                             : en:01:11:00.339
01:16:49.146                             : en:01:16:49.146
01:22:00.999                             : en:01:22:00.999
01:25:14.526                             : en:01:25:14.526
01:29:15.058                             : en:01:29:15.058
01:35:29.349                             : en:01:35:29.349
Скриншоты:

         
         

-
Other forum [Profile] [PM]

Dracula

Longevity: 7 years 5 months

Posts: 11219

Торрент-статистика

Post 12-Jun-2013 18:26 (after 1 day 23 hours)

Топик был перенесен из форума Фильмы 2013 (новинки) в форум Новинки (DVD, HD Video)


Delia
 

Dracula

Longevity: 7 years 5 months

Posts: 11219

Торрент-статистика

Post 02-Jan-2014 15:52 (after 6 months 21 day)

Топик был перенесен из форума Новинки (DVD, HD Video) в форум Зарубежное кино (HD Video)


kogesan
 
Display posts from previous:    
Reply to topic

The time now is: Today 10:48

All times are GMT + 3 Hours



You cannot post new topics in this forum
You cannot reply to topics in this forum
You cannot edit your posts in this forum
You cannot delete your posts in this forum
You cannot vote in polls in this forum
You cannot attach files in this forum
You cannot download files in this forum