Today is a free download without charge Download

Темная сторона желания 2 (Страсть 2) / Jism 2 (Пуджа Бхатт / Pudja Bhatt) [2012, Индия, Clockwork Films, Fish Eye Network, Триллер, драма, мелодрама, BDRip 720р] MVO + Sub Rus

Reply to topic
 
Author
Message

Omen ®

Longevity: 8 years 5 months

Posts: 181087

Торрент-статистика

Post 10-Jun-2013 16:55

[Quote]

Темная сторона желания 2 (Страсть 2) / Jism 2
Страна: Индия, Clockwork Films, Fish Eye Network
Жанр: Триллер, драма, мелодрама
Год выпуска: 2012
Продолжительность: 02:09:47
Перевод: Любительский (многоголосый закадровый)
Cубтитры: русские
Режиссер: Пуджа Бхатт / Pudja Bhatt
В ролях: Рандип Худа, Санни Леоне, Арунодай Синкх, Джунайид Бин Фахрул, Имран Заид, Ариф Закария
Описание: Меня зовут Изна. Я порнозвезда. Всю свою жизнь моё тело развлекало людей. А сегодня я умираю в полном одиночестве. Но перед смертью я обязана кое-что сделать. Я должна у одного человека попросить прощения за свои ошибки. Но сможет ли он меня простить? Или после смерти я вечно буду гореть в аду? Этому положила начало любовь. Любовь.
Семпл http://multi-up.com/874125
Трейлер
Качество видео: BDRip 720р
Формат видео: MKV
Видео: MPEG-4 AVC, 4185 Кбит/с, 1280x560, 24,000 кадра/сек
Аудио: Русский AC3, 6 ch, 448 Кбит/с, 48,0 КГц
Аудио 2: Хинди АС3, 6 ch, 640 Кбит/с, 48,0 КГц

MediaInfo

Формат : Matroska
Версия формата : Version 2
Размер файла : 4,78 Гбайт
Продолжительность : 2 ч. 9 м.
Общий поток : 5275 Кбит/сек
Дата кодирования : UTC 2013-06-09 23:50:42
Программа кодирования : mkvmerge v5.6.0 ('Kenya Kane') built on May 27 2012 16:44:04
Библиотека кодирования : libebml v1.2.3 + libmatroska v1.3.0
Видео
Идентификатор : 1
Формат : AVC
Формат/Информация : Advanced Video Codec
Профиль формата : [email protected]
Параметр CABAC формата : Да
Параметр ReFrames формата : 9 кадров
Идентификатор кодека : V_MPEG4/ISO/AVC
Продолжительность : 2 ч. 9 м.
Битрейт : 4185 Кбит/сек
Ширина : 1280 пикселей
Высота : 560 пикселей
Соотношение сторон : 2,25:1
Режим частоты кадров : Постоянный
Частота кадров : 24,000 кадра/сек
Цветовое пространство : YUV
Субдискретизация насыщенности : 4:2:0
Битовая глубина : 8 бит
Тип развёртки : Прогрессивная
Бит/(Пиксели*Кадры) : 0.243
Размер потока : 3,70 Гбайт (77%)
Библиотека кодирования : x264 core 125 r2200 999b753
Настройки программы : cabac=1 / ref=9 / deblock=1:-3:1 / analyse=0x3:0x113 / me=umh / subme=8 / psy=1 / psy_rd=1.00:0.00 / mixed_ref=1 / me_range=16 / chroma_me=1 / trellis=1 / 8x8dct=1 / cqm=0 / deadzone=21,11 / fast_pskip=1 / chroma_qp_offset=-2 / threads=12 / lookahead_threads=2 / sliced_threads=0 / nr=0 / decimate=1 / interlaced=0 / bluray_compat=0 / constrained_intra=0 / bframes=3 / b_pyramid=0 / b_adapt=2 / b_bias=0 / direct=2 / weightb=1 / open_gop=0 / weightp=2 / keyint=240 / keyint_min=24 / scenecut=40 / intra_refresh=0 / rc_lookahead=40 / rc=2pass / mbtree=1 / bitrate=4185 / ratetol=1.0 / qcomp=0.60 / qpmin=10 / qpmax=51 / qpstep=4 / cplxblur=20.0 / qblur=0.5 / ip_ratio=1.40 / aq=1:1.00
Язык : Hindi
Default : Да
Forced : Нет
Аудио #1
Идентификатор : 2
Формат : AC-3
Формат/Информация : Audio Coding 3
Расширение режима : CM (complete main)
Параметр Endianness формата : Big
Идентификатор кодека : A_AC3
Продолжительность : 2 ч. 9 м.
Вид битрейта : Постоянный
Битрейт : 448 Кбит/сек
Каналы : 6 каналов
Расположение каналов : Front: L C R, Side: L R, LFE
Частота : 48,0 КГц
Битовая глубина : 16 бит
Метод сжатия : С потерями
Размер потока : 416 Мбайт (8%)
Заголовок : ICG
Язык : Russian
Default : Да
Forced : Да
Аудио #2
Идентификатор : 3
Формат : AC-3
Формат/Информация : Audio Coding 3
Расширение режима : CM (complete main)
Параметр Endianness формата : Big
Идентификатор кодека : A_AC3
Продолжительность : 2 ч. 9 м.
Вид битрейта : Постоянный
Битрейт : 640 Кбит/сек
Каналы : 6 каналов
Расположение каналов : Front: L C R, Side: L R, LFE
Частота : 48,0 КГц
Битовая глубина : 16 бит
Метод сжатия : С потерями
Размер потока : 594 Мбайт (12%)
Язык : Hindi
Default : Нет
Forced : Нет
Текст #1
Идентификатор : 4
Формат : UTF-8
Идентификатор кодека : S_TEXT/UTF8
Идентификатор кодека/Информация : UTF-8 Plain Text
Заголовок : На песни
Язык : Russian
Default : Да
Forced : Да
Текст #2
Идентификатор : 5
Формат : UTF-8
Идентификатор кодека : S_TEXT/UTF8
Идентификатор кодека/Информация : UTF-8 Plain Text
Заголовок : Полные
Язык : Russian
Default : Нет
Forced : Нет
Меню
00:00:00.000 : en:00:00:00.000
00:02:22.750 : en:00:02:22.750
00:06:25.417 : en:00:06:25.417
00:18:47.500 : en:00:18:47.500
00:27:35.667 : en:00:27:35.667
00:32:55.000 : en:00:32:55.000
00:37:08.333 : en:00:37:08.333
00:41:53.083 : en:00:41:53.083
00:52:36.625 : en:00:52:36.625
01:05:22.667 : en:01:05:22.667
01:13:58.250 : en:01:13:58.250
01:19:26.292 : en:01:19:26.292
01:33:32.000 : en:01:33:32.000
01:35:19.708 : en:01:35:19.708
01:49:28.042 : en:01:49:28.042
01:58:07.917 : en:01:58:07.917
02:04:26.667 : en:02:04:26.667

Скриншот c названием фильма

Скриншоты

Other forum [Profile] [PM]
Display posts from previous:    
Reply to topic

The time now is: Today 10:24

All times are GMT + 3 Hours



You cannot post new topics in this forum
You cannot reply to topics in this forum
You cannot edit your posts in this forum
You cannot delete your posts in this forum
You cannot vote in polls in this forum
You cannot attach files in this forum
You cannot download files in this forum