Today is a free download without charge Download

Наследие Вальдемара / La herencia Valdemar (Хосе Луис Алеман / José Luis Alemán) [2010, Испания, ужасы, детектив, BDRip 1080p] DVO + Sub Eng + Original Spa

Reply to topic
 
Author
Message

Omen ®

Longevity: 8 years 5 months

Posts: 181087

Торрент-статистика

Post 10-Jun-2013 16:55

[Quote]

Наследие Вальдемара / La herencia Valdemar
Страна: ИспанияСтудия: La Cruzada Entertainment, Origen Producciones Cinematograficas S.A.
Жанр: ужасы, детективГод выпуска: 2010
Продолжительность: 01:44:34
Перевод: Любительский (двухголосый закадровый)
Cубтитры: английскиеОригинальная аудиодорожка: испанский
Режиссер: Хосе Луис Алеман / José Luis Alemán
В ролях: Сильвия Абаскал (Luisa Lorente), Jimmy Barnatán (Garbea), Lino Braxe (Bram Stoker), Ana Bullón (Beatriz), Ignacio García-Bustelo (Carcelero 1880), Луис Гарсия (Comisario Dartin), Оскар Хаенада (Nicolás Tremel), Даниэле Лиотти (Lázaro Valdemar), Франсиско Маэстре (Aleister Crowley), Лайя Марулл (Leonor Valdemar), Хасинто Молина (Jervás), Иисус Ольмедо (Chambelán)
Описание: Луиза Лиоренте, эксперт по налогообложению старых зданий, посетившая таинственный Викторианский особняк Вальдемар, что бы провести инвентаризацию собственности, таинственным образом исчезает. Максимилиан, президент компании в которой работает Луиза, нанимает частного детектива Николоса, что бы тот разыскал ее. Занимаясь расследованием, Николос выясняет, что это далеко не первое исчезновение…


Тип релиза: BDRip 1080p исходник BDRemux
Контейнер: MKV
Видео: 1920x1040p, 16:9, 24,000 fps, x264 ~12,2 Мбит/сек avg
Аудио 1: Russian: 48 kHz, AC3, 3/2 (L,C,R,l,r) + LFE ch, ~448.00 kbps avg |двухголосый закадровый|Аудио 2: Spanish: 48 kHz, AC3, 3/2 (L,C,R,l,r) + LFE ch, ~640.00 kbps avg

MediaInfo

Общее
Уникальный идентификатор : 193201643478489235775249431575194834405 (0x91594875D58463FB9FBBA41FC8DD15E5)
Полное имя : C:\Users\Nushrok\Desktop\La.herencia.Valdemar.2010.BDRip.1080p_[/*spam*/]_by_нушрок.mkv
Формат : Matroska
Версия формата : Version 2
Размер файла : 9,71 Гбайт
Продолжительность : 1 ч. 44 м.
Общий поток : 13,3 Мбит/сек
Дата кодирования : UTC 2011-12-28 19:44:27
Программа кодирования : mkvmerge v4.9.1 ('Ich will') сборка от Aug 10 2011 09:31:20
Библиотека кодирования : libebml v1.2.1 + libmatroska v1.2.0
Видео
Идентификатор : 1
Формат : AVC
Формат/Информация : Advanced Video Codec
Профиль формата : [email protected]
Параметр CABAC формата : Да
Параметр ReFrames формата : 5 кадров
Идентификатор кодека : V_MPEG4/ISO/AVC
Продолжительность : 1 ч. 44 м.
Битрейт : 12,2 Мбит/сек
Ширина : 1920 пикселей
Высота : 1040 пикселей
Соотношение сторон : 16:9
Частота кадров : 24,000 кадра/сек
Цветовое пространство : YUV
Субдискретизация насыщенности : 4:2:0
Битовая глубина : 8 бит
Тип развёртки : Прогрессивная
Бит/(Пиксели*Кадры) : 0.255
Размер потока : 8,72 Гбайт (90%)
Библиотека кодирования : x264 core 116 r2074 2641b9e
Настройки программы : cabac=1 / ref=5 / deblock=1:-2:-1 / analyse=0x3:0x113 / me=umh / subme=11 / psy=1 / psy_rd=1.00:0.20 / mixed_ref=1 / me_range=48 / chroma_me=1 / trellis=2 / 8x8dct=1 / cqm=0 / deadzone=21,11 / fast_pskip=0 / chroma_qp_offset=-3 / threads=6 / sliced_threads=0 / nr=0 / decimate=0 / interlaced=0 / bluray_compat=0 / constrained_intra=0 / bframes=8 / b_pyramid=2 / b_adapt=2 / b_bias=0 / direct=3 / weightb=1 / open_gop=0 / weightp=2 / keyint=250 / keyint_min=23 / scenecut=40 / intra_refresh=0 / rc_lookahead=60 / rc=2pass / mbtree=1 / bitrate=12200 / ratetol=1.0 / qcomp=0.60 / qpmin=0 / qpmax=69 / qpstep=4 / cplxblur=20.0 / qblur=0.5 / ip_ratio=1.40 / aq=1:1.00
Язык : English
Аудио #1
Идентификатор : 2
Формат : AC-3
Формат/Информация : Audio Coding 3
Расширение режима : CM (complete main)
Идентификатор кодека : A_AC3
Продолжительность : 1 ч. 44 м.
Вид битрейта : Постоянный
Битрейт : 448 Кбит/сек
Каналы : 6 каналов
Расположение каналов : Front: L C R, Side: L R, LFE
Частота : 48,0 КГц
Битовая глубина : 16 бит
Метод сжатия : С потерями
Размер потока : 335 Мбайт (3%)
Заголовок : Любительский (двухголосый)
Язык : Russian
Аудио #2
Идентификатор : 3
Формат : AC-3
Формат/Информация : Audio Coding 3
Расширение режима : CM (complete main)
Идентификатор кодека : A_AC3
Продолжительность : 1 ч. 44 м.
Вид битрейта : Постоянный
Битрейт : 640 Кбит/сек
Каналы : 6 каналов
Расположение каналов : Front: L C R, Side: L R, LFE
Частота : 48,0 КГц
Битовая глубина : 16 бит
Метод сжатия : С потерями
Размер потока : 479 Мбайт (5%)
Заголовок : Original
Язык : Spanish
Текст
Идентификатор : 4
Формат : UTF-8
Идентификатор кодека : S_TEXT/UTF8
Идентификатор кодека/Информация : UTF-8 Plain Text
Язык : English

Скриншоты


Other forum [Profile] [PM]
Display posts from previous:    
Reply to topic

The time now is: Today 11:18

All times are GMT + 3 Hours



You cannot post new topics in this forum
You cannot reply to topics in this forum
You cannot edit your posts in this forum
You cannot delete your posts in this forum
You cannot vote in polls in this forum
You cannot attach files in this forum
You cannot download files in this forum