Today is a free download without charge Download

Эрнест напугал дураков / Ernest Scared Stupid (Джон Р. Черри III / John R. Cherry III) [1991 г., комедия, BDRemux 1080p] AVO (Пронин)

Reply to topic
 
Author
Message

Omen ®

Longevity: 8 years 5 months

Posts: 181087

Торрент-статистика

Post 10-Jun-2013 16:55

[Quote]

Эрнест напугал дураков / Ernest Scared Stupid
Год выпуска: 1991
Страна: США
Жанр: комедия
Продолжительность: 1:32:23
Перевод: Авторский (одноголосый) Антон Пронин
Русские субтитры: нет
Режиссер: Джон Р. Черри III / John R. Cherry III
В ролях: Джим Варни, Эрта Китт, Остин Наглер, Шэй Астар, Jonas Moscartolo, Джон Каденхэд, Bill Byrge, Ричард Вулф, Ник Виктори, Алек Клэппер, Steven Moriyon, Дэниэл Батлер, Эстер Хьюстон, Ларри Блэк, Денис Хикс, Мелани Вилер, Джеки Уэлш, Mark Delabarre, Майкл Монтгомери, Mary Jane Harvill, Lauren Frankenbach, Роберта Мэдисон, Бэрри Скотт, Cathy Susan Pyles, Майк Р. Мюллер, Jessa Fahey, Майк Хатчинсон, Adora Dupree, Джои Андерсон, Дэннис Харрисон мл., Даниэль Харрисон, Барклей, Ernie Fosselius, Нелли Батсон, Анджела Чао, Рени Клэри, Deidre Clower, Rhonda Clower, Энн Дрезен, Misty Eaker, Ральф Грин мл., Тэмми Харрисон, Дэна Кеннеди, Pamela Kippes, Рени ЛеБланк, Glenn Seer, Tawanya Smith, Тодд Сеттлс, Дуглас Загорски, Джуди Остин, Sabrina Birdine, Джоди Эванс, Филлис Фуллер, Melissa Gerach, Reginald Glimps, Жанетт Грин, Marc Gullen, Уилл Хэммонд, Вики Джейкобс, Джон Филлипс, Daniel Sarenana, Гвендолин Смит, Ванесса Смит, Бобби Сторм, Энн Янг, Дэниэл Хиггс, Грегг Хиггс, Карсон Каниц, Марин Миллер, Люк Роберт, Badd Catt
Описание: Эрнесту 30 лет. Он работает мусорщиком и лучше всех пускает кораблики, разбивает мячами окна и ставит подножки. Его обожают дети и животные всего города. Мальчишки попросили Эрнеста построить дом на огромном старом дубе. Эрнест натаскал досок, подпилил ветки. Но тут случилось что-то странное — дерево взбунтовалось.
Доп. информация: РЕЛИЗ ГРУППЫ
Качество: BDRemux
Формат: MKV
Видео: MPEG-4 AVC Video 30335 kbps 1080p / 23.976 fps / 16:9 / High Profile 4.1
Аудио: Dolby Digital Audio Russian 2.0 / 48 kHz / 192 kbps
Аудио: Dolby Digital Audio English 2.0 / 48 kHz / 192 kbps / DN -4dB

MI

General
Unique ID : 178931477573955343325889131024269707671 (0x869CF2F5F1C2B714879E18E799B40997)
Complete name : J:\Ernest.Scared.Stupid.1991.1080p.Bluray.AVC.Remux.mkv
Format : Matroska
File size : 19.8 GiB
Duration : 1h 32mn
Overall bit rate : 30.7 Mbps
Movie name : Ernest.Scared.Stupid.1991.1080p.Bluray.AVC.Remux
Encoded date : UTC 2011-07-24 23:29:26
Writing application : mkvmerge v4.9.1 ('Ich will') сборка от Jul 11 2011 23:53:15
Writing library : libebml v1.2.1 + libmatroska v1.1.1
Video
ID : 1
Format : AVC
Format/Info : Advanced Video Codec
Format profile : [email protected]
Format settings, CABAC : Yes
Format settings, ReFrames : 3 frames
Codec ID : V_MPEG4/ISO/AVC
Duration : 1h 32mn
Bit rate mode : Variable
Bit rate : 29.7 Mbps
Maximum bit rate : 35.0 Mbps
Width : 1 920 pixels
Height : 1 080 pixels
Display aspect ratio : 16:9
Frame rate : 23.976 fps
Standard : NTSC
Color space : YUV
Chroma subsampling : 4:2:0
Bit depth : 8 bits
Scan type : Progressive
Bits/(Pixel*Frame) : 0.598
Stream size : 19.2 GiB (97%)
Title : uralmix
Color primaries : BT.709-5, BT.1361, IEC 61966-2-4, SMPTE RP177
Transfer characteristics : BT.709-5, BT.1361
Matrix coefficients : BT.709-5, BT.1361, IEC 61966-2-4 709, SMPTE RP177
Audio #1
ID : 2
Format : AC-3
Format/Info : Audio Coding 3
Mode extension : CM (complete main)
Codec ID : A_AC3
Duration : 1h 32mn
Bit rate mode : Constant
Bit rate : 192 Kbps
Channel(s) : 2 channels
Channel positions : Front: L R
Sampling rate : 48.0 KHz
Bit depth : 16 bits
Compression mode : Lossy
Stream size : 127 MiB (1%)
Title : авторский - Антон Пронин
Language : Russian
Audio #2
ID : 3
Format : AC-3
Format/Info : Audio Coding 3
Mode extension : CM (complete main)
Codec ID : A_AC3
Duration : 1h 32mn
Bit rate mode : Constant
Bit rate : 192 Kbps
Channel(s) : 2 channels
Channel positions : Front: L R
Sampling rate : 48.0 KHz
Bit depth : 16 bits
Compression mode : Lossy
Stream size : 127 MiB (1%)
Language : English
Menu
00:00:00.000 : en:00:00:00.000
00:08:31.261 : en:00:08:31.261
00:15:24.465 : en:00:15:24.465
00:21:59.652 : en:00:21:59.652
00:31:49.866 : en:00:31:49.866
00:39:08.346 : en:00:39:08.346
00:45:16.297 : en:00:45:16.297
00:51:54.194 : en:00:51:54.194
00:59:29.065 : en:00:59:29.065
01:09:42.762 : en:01:09:42.762
01:20:11.473 : en:01:20:11.473
01:29:15.767 : en:01:29:15.767

Скриншоты

Other forum [Profile] [PM]
Display posts from previous:    
Reply to topic

The time now is: Today 10:09

All times are GMT + 3 Hours



You cannot post new topics in this forum
You cannot reply to topics in this forum
You cannot edit your posts in this forum
You cannot delete your posts in this forum
You cannot vote in polls in this forum
You cannot attach files in this forum
You cannot download files in this forum