Today is a free download without charge Download

Judas Priest - Epitaph [2013, Heavy Metal, BDRip 1080p]

Reply to topic
 
Author
Message

Omen ®

Longevity: 8 years 4 months

Posts: 181087

Торрент-статистика

Post 10-Jun-2013 08:49

[Quote]

Judas Priest - Epitaph
Жанр: Heavy Metal
Продолжительность: 02:22:29
Год выпуска: 2013
Описание: In May 2012, Judas Priest wrapped up their epic "Epitaph" world tour with a storming set at London's Hammersmith Apollo. The band, having announced that this would be their final large-scale world tour, celebrated their last and possibly final show with an incredible career-spanning set list that brought down the house. In addition to performing all their classics "Breaking The Law," "Living After Midnight" and "You ve Got Another Thing Comin'" the Priest dug deep into their catalog, performing at least one song from each of their albums, which rounded off their 23-song set list.
Now, one year later, this legendary set will be released on DVD, BluRay and digital long form video by Legacy Recordings (US). The Epitaph captures Priest's electrifying over the top metal onslaught and is proof they are still at the top of their game after 40 years of headbanging.
Качество: BDRip 1080p
Контейнер: MKV
Видео кодек: H.264
Аудио кодек: DTS
Видео: MPEG-4 AVC, 12.0 Mbps, 1920x1080, 29.970 fps
Аудио: English, DTS, 6ch, 1510 Kbps
Tracklist
01. Battle Hymn
02. Rapid Fire
03. Metal Gods
04. Heading Out to the Highway
05. Judas Rising
06. Starbreaker
07. Victim of Changes
08. Never Satisfied
09. Diamonds and Rust
10. Prophecy
11. Night Crawler
12. Turbo Lover
13. Beyond the Realms of Death
14. The Sentinel
15. Blood Red Skies
16. The Green Manalishi (With the Two-Pronged Crown)
17. Breaking the Law
18. Painkiller
19. The Hellion
20. Electric Eye
21. Hell Bent for Leather
22. You've Got Another Thing Coming
23. Living After Midnight

Отчёт MediaInfo / BDInfo

GeneralComplete name : H:\Torrent\Judas.Priest.Epitaph.2013.BDRip.1080p.dts.mkvFormat : MatroskaFile size : 13.4 GiBDuration : 2h 22mnOverall bit rate : 13.5 MbpsMovie name : Judas Priest - Epitaph (2013)Encoded date : UTC 2013-06-10 03:33:16Writing application : mkvmerge v4.9.1 ('Ich will') сборка от Jul 11 2011 23:53:15Writing library : libebml v1.2.1 + libmatroska v1.1.1
VideoID : 1Format : AVCFormat/Info : Advanced Video CodecFormat profile : [email protected] settings, CABAC : YesFormat settings, ReFrames : 4 framesMuxing mode : Container [email protected] ID : V_MPEG4/ISO/AVCDuration : 2h 22mnBit rate : 11.7 MbpsNominal bit rate : 12.0 MbpsWidth : 1 920 pixelsHeight : 1 080 pixelsDisplay aspect ratio : 16:9Frame rate : 29.970 fpsResolution : 24 bitsColorimetry : 4:2:0Scan type : ProgressiveBits/(Pixel*Frame) : 0.189Stream size : 11.7 GiB (87%)Title : Judas Priest - Epitaph (2013)Writing library : x264 core 133 r2334 a3ac64bEncoding settings : cabac=1 / ref=4 / deblock=1:-3:-3 / analyse=0x3:0x113 / me=umh / subme=11 / psy=1 / psy_rd=1.00:0.00 / mixed_ref=1 / me_range=24 / chroma_me=1 / trellis=2 / 8x8dct=1 / cqm=0 / deadzone=21,11 / fast_pskip=1 / chroma_qp_offset=-2 / threads=6 / lookahead_threads=1 / sliced_threads=0 / nr=0 / decimate=1 / interlaced=0 / bluray_compat=0 / constrained_intra=0 / bframes=5 / b_pyramid=2 / b_adapt=2 / b_bias=0 / direct=2 / weightb=0 / open_gop=0 / weightp=2 / keyint=300 / keyint_min=29 / scenecut=40 / intra_refresh=0 / rc_lookahead=40 / rc=2pass / mbtree=1 / bitrate=12000 / ratetol=1.0 / qcomp=0.60 / qpmin=0 / qpmax=69 / qpstep=4 / cplxblur=20.0 / qblur=0.5 / vbv_maxrate=62500 / vbv_bufsize=78125 / nal_hrd=none / ip_ratio=1.40 / aq=1:1.00 / zones=255108,256240,q=40
AudioID : 2Format : DTSFormat/Info : Digital Theater SystemsCodec ID : A_DTSDuration : 2h 22mnBit rate mode : ConstantBit rate : 1 510 KbpsChannel(s) : 6 channelsChannel positions : Front: L C R, Surround: L R, LFESampling rate : 48.0 KHzResolution : 24 bitsStream size : 1.50 GiB (11%)Title : DTS 5.1ch
Menu00:00:00.000 : :Chapter 0100:00:57.057 : :Chapter 0200:05:23.323 : :Chapter 0300:09:36.576 : :Chapter 0400:14:59.898 : :Chapter 0500:19:23.162 : :Chapter 0600:23:57.436 : :Chapter 0700:35:25.123 : :Chapter 0800:41:14.472 : :Chapter 0900:47:06.824 : :Chapter 1000:53:19.196 : :Chapter 1100:59:53.590 : :Chapter 1201:05:47.944 : :Chapter 1301:14:03.439 : :Chapter 1401:20:32.828 : :Chapter 1501:28:04.279 : :Chapter 1601:33:28.603 : :Chapter 1701:36:25.780 : :Chapter 1801:45:27.321 : :Chapter 1901:46:10.363 : :Chapter 2001:50:48.642 : :Chapter 2101:56:54.007 : :Chapter 2202:12:24.937 : :Chapter 2302:21:24.476 : :Chapter 2402:22:29.908 : :Chapter 25

Скриншоты

Other forum [Profile] [PM]
Display posts from previous:    
Reply to topic

The time now is: Today 18:03

All times are GMT + 3 Hours



You cannot post new topics in this forum
You cannot reply to topics in this forum
You cannot edit your posts in this forum
You cannot delete your posts in this forum
You cannot vote in polls in this forum
You cannot attach files in this forum
You cannot download files in this forum