Today is a free download without charge Download

Budgie - 10 albums (1971-2006) [MP3|190-320 Kbps]

Reply to topic
 
Author
Message

UndegraundMen ®

Longevity: 7 years 7 months

Posts: 25145

Торрент-статистика

Post 10-Jun-2013 02:51

[Quote]

Budgie - 10 albums (1971-2006)- Год: 1971-2006
Жанр: Heavy Metal, Hard Rock, Progressive Rock
Продолжительность: 06:33:44
Кодек: MP3
Битрейт: 190-320 Kbps
Тип битрейта: VBR-CBR
Треклист:

1971 Budgie (190 Kbps)

Продолжительность: 00:40:55
Трек лист:
1. Guts (4:20)
2. Everything In My Heart (0:52)
3. The Author (6:28)
4. Nude Disintegrating Parachutis (8:41)
5. The Rape Of The Locks (6:12)
6. All Night Petrol (5:57)
7. You And I (1:41)
8. Homicidal Suicidal (6:41)

mediainfo

Полное имя : C:\Users\Gigelmesh\Pictures\FOTO\01-Guts_01.mp3
Формат : MPEG Audio
Размер файла : 5,86 Мбайт
Продолжительность : 4 м. 20 с.
Режим общего битрейта : Переменный
Общий поток : 189 Кбит/сек
Альбом : Budgie
Трек : Guts
Трек/Положение : 1
Исполнитель : Budgie
Жанр : Hard Rock
Дата записи : 1971
Библиотека кодирования : LAME3.99r
Аудио
Формат : MPEG Audio
Версия формата : Version 1
Профиль формата : Layer 3
Режим : Joint stereo
Продолжительность : 4 м. 20 с.
Вид битрейта : Переменный
Битрейт : 189 Кбит/сек
Минимальный битрейт : 32,0 Кбит/сек
Каналы : 2 канала
Частота : 44,1 КГц
Метод сжатия : С потерями
Размер потока : 5,86 Мбайт (100%)
Библиотека кодирования : LAME3.99r
Настройки программы : -m j -V 2 -q 0 -lowpass 18.5 --vbr-new -b 32
Общее
Полное имя : C:\Users\Gigelmesh\Pictures\FOTO\02-Everything In My Heart.mp3
Формат : MPEG Audio
Размер файла : 1,20 Мбайт
Продолжительность : 52 с.
Режим общего битрейта : Переменный
Общий поток : 190 Кбит/сек
Альбом : Budgie
Трек : Everything In My Heart
Трек/Положение : 2
Исполнитель : Budgie
Жанр : Hard Rock
Дата записи : 1971
Библиотека кодирования : LAME3.99r
Аудио
Формат : MPEG Audio
Версия формата : Version 1
Профиль формата : Layer 3
Режим : Joint stereo
Продолжительность : 52 с.
Вид битрейта : Переменный
Битрейт : 190 Кбит/сек
Минимальный битрейт : 32,0 Кбит/сек
Каналы : 2 канала
Частота : 44,1 КГц
Метод сжатия : С потерями
Размер потока : 1,20 Мбайт (100%)
Библиотека кодирования : LAME3.99r
Настройки программы : -m j -V 2 -q 0 -lowpass 18.5 --vbr-new -b 32
Общее
Полное имя : C:\Users\Gigelmesh\Pictures\FOTO\03-The Author.mp3
Формат : MPEG Audio
Размер файла : 8,86 Мбайт
Продолжительность : 6 м. 28 с.
Режим общего битрейта : Переменный
Общий поток : 191 Кбит/сек
Альбом : Budgie
Трек : The Author
Трек/Положение : 3
Исполнитель : Budgie
Жанр : Hard Rock
Дата записи : 1971
Библиотека кодирования : LAME3.99r
Аудио
Формат : MPEG Audio
Версия формата : Version 1
Профиль формата : Layer 3
Режим : Joint stereo
Продолжительность : 6 м. 28 с.
Вид битрейта : Переменный
Битрейт : 191 Кбит/сек
Минимальный битрейт : 32,0 Кбит/сек
Каналы : 2 канала
Частота : 44,1 КГц
Метод сжатия : С потерями
Размер потока : 8,86 Мбайт (100%)
Библиотека кодирования : LAME3.99r
Настройки программы : -m j -V 2 -q 0 -lowpass 18.5 --vbr-new -b 32
Общее
Полное имя : C:\Users\Gigelmesh\Pictures\FOTO\04-Nude Disintegrating Parachutis.mp3
Формат : MPEG Audio
Размер файла : 12,0 Мбайт
Продолжительность : 8 м. 41 с.
Режим общего битрейта : Переменный
Общий поток : 193 Кбит/сек
Альбом : Budgie
Трек : Nude Disintegrating Parachutis
Трек/Положение : 4
Исполнитель : Budgie
Жанр : Hard Rock
Дата записи : 1971
Библиотека кодирования : LAME3.99r
Аудио
Формат : MPEG Audio
Версия формата : Version 1
Профиль формата : Layer 3
Режим : Joint stereo
Продолжительность : 8 м. 41 с.
Вид битрейта : Переменный
Битрейт : 193 Кбит/сек
Минимальный битрейт : 32,0 Кбит/сек
Каналы : 2 канала
Частота : 44,1 КГц
Метод сжатия : С потерями
Размер потока : 12,0 Мбайт (100%)
Библиотека кодирования : LAME3.99r
Настройки программы : -m j -V 2 -q 0 -lowpass 18.5 --vbr-new -b 32
Общее
Полное имя : C:\Users\Gigelmesh\Pictures\FOTO\05-The Rape Of The Locks.mp3
Формат : MPEG Audio
Размер файла : 8,42 Мбайт
Продолжительность : 6 м. 12 с.
Режим общего битрейта : Переменный
Общий поток : 190 Кбит/сек
Альбом : Budgie
Трек : The Rape Of The Locks
Трек/Положение : 5
Исполнитель : Budgie
Жанр : Hard Rock
Дата записи : 1971
Библиотека кодирования : LAME3.99r
Аудио
Формат : MPEG Audio
Версия формата : Version 1
Профиль формата : Layer 3
Режим : Joint stereo
Продолжительность : 6 м. 12 с.
Вид битрейта : Переменный
Битрейт : 190 Кбит/сек
Минимальный битрейт : 32,0 Кбит/сек
Каналы : 2 канала
Частота : 44,1 КГц
Метод сжатия : С потерями
Размер потока : 8,42 Мбайт (100%)
Библиотека кодирования : LAME3.99r
Настройки программы : -m j -V 2 -q 0 -lowpass 18.5 --vbr-new -b 32
Общее
Полное имя : C:\Users\Gigelmesh\Pictures\FOTO\06-All Night Petrol.mp3
Формат : MPEG Audio
Размер файла : 8,40 Мбайт
Продолжительность : 5 м. 57 с.
Режим общего битрейта : Переменный
Общий поток : 197 Кбит/сек
Альбом : Budgie
Трек : All Night Petrol
Трек/Положение : 6
Исполнитель : Budgie
Жанр : Hard Rock
Дата записи : 1971
Библиотека кодирования : LAME3.99r
Аудио
Формат : MPEG Audio
Версия формата : Version 1
Профиль формата : Layer 3
Режим : Joint stereo
Продолжительность : 5 м. 57 с.
Вид битрейта : Переменный
Битрейт : 197 Кбит/сек
Минимальный битрейт : 32,0 Кбит/сек
Каналы : 2 канала
Частота : 44,1 КГц
Метод сжатия : С потерями
Размер потока : 8,40 Мбайт (100%)
Библиотека кодирования : LAME3.99r
Настройки программы : -m j -V 2 -q 0 -lowpass 18.5 --vbr-new -b 32
Общее
Полное имя : C:\Users\Gigelmesh\Pictures\FOTO\07-You And I.mp3
Формат : MPEG Audio
Размер файла : 2,61 Мбайт
Продолжительность : 1 м. 41 с.
Режим общего битрейта : Переменный
Общий поток : 215 Кбит/сек
Альбом : Budgie
Трек : You And I
Трек/Положение : 7
Исполнитель : Budgie
Жанр : Hard Rock
Дата записи : 1971
Библиотека кодирования : LAME3.99r
Аудио
Формат : MPEG Audio
Версия формата : Version 1
Профиль формата : Layer 3
Режим : Joint stereo
Продолжительность : 1 м. 41 с.
Вид битрейта : Переменный
Битрейт : 215 Кбит/сек
Минимальный битрейт : 32,0 Кбит/сек
Каналы : 2 канала
Частота : 44,1 КГц
Метод сжатия : С потерями
Размер потока : 2,61 Мбайт (100%)
Библиотека кодирования : LAME3.99r
Настройки программы : -m j -V 2 -q 0 -lowpass 18.5 --vbr-new -b 32
Общее
Полное имя : C:\Users\Gigelmesh\Pictures\FOTO\08-Homicidal Suicidal.mp3
Формат : MPEG Audio
Размер файла : 9,24 Мбайт
Продолжительность : 6 м. 41 с.
Режим общего битрейта : Переменный
Общий поток : 193 Кбит/сек
Альбом : Budgie
Трек : Homicidal Suicidal
Трек/Положение : 8
Исполнитель : Budgie
Жанр : Hard Rock
Дата записи : 1971
Библиотека кодирования : LAME3.99r
Аудио
Формат : MPEG Audio
Версия формата : Version 1
Профиль формата : Layer 3
Режим : Joint stereo
Продолжительность : 6 м. 41 с.
Вид битрейта : Переменный
Битрейт : 193 Кбит/сек
Минимальный битрейт : 32,0 Кбит/сек
Каналы : 2 канала
Частота : 44,1 КГц
Метод сжатия : С потерями
Размер потока : 9,24 Мбайт (100%)
Библиотека кодирования : LAME3.99r
Настройки программы : -m j -V 2 -q 0 -lowpass 18.5 --vbr-new -b 32

1972 Squawk (320 Kbps)

Продолжительность: 00:38:30
Трек лист:
1. Whiskey River (3:20)
2. Rocking Man (5:26)
3. Rolling Home Again (1:43)
4. Make Me Happy (2:38)
5. Hot as a Docker's Armpit (5:52)
6. Drugstore Woman (3:15)
7. Bottled (1:49)
8. Young is a World (8:06)
9. Stranded (6:17

mediainfo

Полное имя : D:\MEDIA\Audio\Budgie\1972-Squawk\01-Whiskey River.mp3
Формат : MPEG Audio
Размер файла : 7,67 Мбайт
Продолжительность : 3 м. 20 с.
Режим общего битрейта : Постоянный
Общий поток : 320 Кбит/сек
Альбом : Squawk
Трек : Whiskey River
Трек/Положение : 1
Исполнитель : Budgie
Жанр : Hard Rock
Дата записи : 1972
Библиотека кодирования : LAME3.97b
Аудио
Формат : MPEG Audio
Версия формата : Version 1
Профиль формата : Layer 3
Продолжительность : 3 м. 21 с.
Вид битрейта : Постоянный
Битрейт : 320 Кбит/сек
Каналы : 2 канала
Частота : 44,1 КГц
Метод сжатия : С потерями
Размер потока : 7,66 Мбайт (100%)
Библиотека кодирования : LAME3.97b
Настройки программы : -m s -V 4 -q 0 -lowpass 20.5
Общее
Полное имя : D:\MEDIA\Audio\Budgie\1972-Squawk\02-Rocking Man.mp3
Формат : MPEG Audio
Размер файла : 12,4 Мбайт
Продолжительность : 5 м. 26 с.
Режим общего битрейта : Постоянный
Общий поток : 320 Кбит/сек
Альбом : Squawk
Трек : Rocking Man
Трек/Положение : 2
Исполнитель : Budgie
Жанр : Hard Rock
Дата записи : 1972
Библиотека кодирования : LAME3.97b
Аудио
Формат : MPEG Audio
Версия формата : Version 1
Профиль формата : Layer 3
Продолжительность : 5 м. 26 с.
Вид битрейта : Постоянный
Битрейт : 320 Кбит/сек
Каналы : 2 канала
Частота : 44,1 КГц
Метод сжатия : С потерями
Размер потока : 12,4 Мбайт (100%)
Библиотека кодирования : LAME3.97b
Настройки программы : -m s -V 4 -q 0 -lowpass 20.5
Общее
Полное имя : D:\MEDIA\Audio\Budgie\1972-Squawk\03-Rolling Home Again.mp3
Формат : MPEG Audio
Размер файла : 3,94 Мбайт
Продолжительность : 1 м. 43 с.
Режим общего битрейта : Постоянный
Общий поток : 320 Кбит/сек
Альбом : Squawk
Трек : Rolling Home Again
Трек/Положение : 3
Исполнитель : Budgie
Жанр : Hard Rock
Дата записи : 1972
Библиотека кодирования : LAME3.97b
Аудио
Формат : MPEG Audio
Версия формата : Version 1
Профиль формата : Layer 3
Продолжительность : 1 м. 43 с.
Вид битрейта : Постоянный
Битрейт : 320 Кбит/сек
Каналы : 2 канала
Частота : 44,1 КГц
Метод сжатия : С потерями
Размер потока : 3,93 Мбайт (100%)
Библиотека кодирования : LAME3.97b
Настройки программы : -m s -V 4 -q 0 -lowpass 20.5
Общее
Полное имя : D:\MEDIA\Audio\Budgie\1972-Squawk\04-Make Me Happy.mp3
Формат : MPEG Audio
Размер файла : 6,06 Мбайт
Продолжительность : 2 м. 38 с.
Режим общего битрейта : Постоянный
Общий поток : 320 Кбит/сек
Альбом : Squawk
Трек : Make Me Happy
Трек/Положение : 4
Исполнитель : Budgie
Жанр : Hard Rock
Дата записи : 1972
Библиотека кодирования : LAME3.97b
Аудио
Формат : MPEG Audio
Версия формата : Version 1
Профиль формата : Layer 3
Продолжительность : 2 м. 38 с.
Вид битрейта : Постоянный
Битрейт : 320 Кбит/сек
Каналы : 2 канала
Частота : 44,1 КГц
Метод сжатия : С потерями
Размер потока : 6,05 Мбайт (100%)
Библиотека кодирования : LAME3.97b
Настройки программы : -m s -V 4 -q 0 -lowpass 20.5
Общее
Полное имя : D:\MEDIA\Audio\Budgie\1972-Squawk\05-Hot as a Docker's Armpit.mp3
Формат : MPEG Audio
Размер файла : 13,5 Мбайт
Продолжительность : 5 м. 52 с.
Режим общего битрейта : Постоянный
Общий поток : 320 Кбит/сек
Альбом : Squawk
Трек : Hot as a Docker's Armpit
Трек/Положение : 5
Исполнитель : Budgie
Жанр : Hard Rock
Дата записи : 1972
Библиотека кодирования : LAME3.97b
Аудио
Формат : MPEG Audio
Версия формата : Version 1
Профиль формата : Layer 3
Продолжительность : 5 м. 53 с.
Вид битрейта : Постоянный
Битрейт : 320 Кбит/сек
Каналы : 2 канала
Частота : 44,1 КГц
Метод сжатия : С потерями
Размер потока : 13,5 Мбайт (100%)
Библиотека кодирования : LAME3.97b
Настройки программы : -m s -V 4 -q 0 -lowpass 20.5
Общее
Полное имя : D:\MEDIA\Audio\Budgie\1972-Squawk\06-Drugstore Woman.mp3
Формат : MPEG Audio
Размер файла : 7,46 Мбайт
Продолжительность : 3 м. 15 с.
Режим общего битрейта : Постоянный
Общий поток : 320 Кбит/сек
Альбом : Squawk
Трек : Drugstore Woman
Трек/Положение : 6
Исполнитель : Budgie
Жанр : Hard Rock
Дата записи : 1972
Библиотека кодирования : LAME3.97b
Аудио
Формат : MPEG Audio
Версия формата : Version 1
Профиль формата : Layer 3
Продолжительность : 3 м. 15 с.
Вид битрейта : Постоянный
Битрейт : 320 Кбит/сек
Каналы : 2 канала
Частота : 44,1 КГц
Метод сжатия : С потерями
Размер потока : 7,45 Мбайт (100%)
Библиотека кодирования : LAME3.97b
Настройки программы : -m s -V 4 -q 0 -lowpass 20.5
Общее
Полное имя : D:\MEDIA\Audio\Budgie\1972-Squawk\07-Bottled.mp3
Формат : MPEG Audio
Размер файла : 4,17 Мбайт
Продолжительность : 1 м. 49 с.
Режим общего битрейта : Постоянный
Общий поток : 320 Кбит/сек
Альбом : Squawk
Трек : Bottled
Трек/Положение : 7
Исполнитель : Budgie
Жанр : Hard Rock
Дата записи : 1972
Библиотека кодирования : LAME3.97b
Аудио
Формат : MPEG Audio
Версия формата : Version 1
Профиль формата : Layer 3
Продолжительность : 1 м. 49 с.
Вид битрейта : Постоянный
Битрейт : 320 Кбит/сек
Каналы : 2 канала
Частота : 44,1 КГц
Метод сжатия : С потерями
Размер потока : 4,17 Мбайт (100%)
Библиотека кодирования : LAME3.97b
Настройки программы : -m s -V 4 -q 0 -lowpass 20.5
Общее
Полное имя : D:\MEDIA\Audio\Budgie\1972-Squawk\08-Young is a World.mp3
Формат : MPEG Audio
Размер файла : 18,5 Мбайт
Продолжительность : 8 м. 6 с.
Режим общего битрейта : Постоянный
Общий поток : 320 Кбит/сек
Альбом : Squawk
Трек : Young is a World
Трек/Положение : 8
Исполнитель : Budgie
Жанр : Hard Rock
Дата записи : 1972
Библиотека кодирования : LAME3.97b
Аудио
Формат : MPEG Audio
Версия формата : Version 1
Профиль формата : Layer 3
Продолжительность : 8 м. 6 с.
Вид битрейта : Постоянный
Битрейт : 320 Кбит/сек
Каналы : 2 канала
Частота : 44,1 КГц
Метод сжатия : С потерями
Размер потока : 18,5 Мбайт (100%)
Библиотека кодирования : LAME3.97b
Настройки программы : -m s -V 4 -q 0 -lowpass 20.5
Общее
Полное имя : D:\MEDIA\Audio\Budgie\1972-Squawk\09-Stranded.mp3
Формат : MPEG Audio
Размер файла : 14,4 Мбайт
Продолжительность : 6 м. 17 с.
Режим общего битрейта : Постоянный
Общий поток : 320 Кбит/сек
Альбом : Squawk
Трек : Stranded
Трек/Положение : 9
Исполнитель : Budgie
Жанр : Hard Rock
Дата записи : 1972
Библиотека кодирования : LAME3.97b
Аудио
Формат : MPEG Audio
Версия формата : Version 1
Профиль формата : Layer 3
Продолжительность : 6 м. 18 с.
Вид битрейта : Постоянный
Битрейт : 320 Кбит/сек
Каналы : 2 канала
Частота : 44,1 КГц
Метод сжатия : С потерями
Размер потока : 14,4 Мбайт (100%)
Библиотека кодирования : LAME3.97b
Настройки программы : -m s -V 4 -q 0 -lowpass 20.5

1973 Never Turn Your Back on a Friend (320 Kbps)

Продолжительность: 00:42:25
Трек лист:
1. Breadfan (6:10)
2. Baby Please Don't Go (5:30)
3. You Know I'll Always Love You (2:15)
4. You're The Biggest Thing Since (8:50)
5. In The Grip Of A Tyrefitter's (6:29)
6. Riding My Nightmare (2:42)
7. Parents (10:25)

mediainfo

Общее
Полное имя : D:\MEDIA\Audio\Budgie\1973-Never Turn Your Back on a Friend\01-Breadfan.mp3
Формат : MPEG Audio
Размер файла : 14,1 Мбайт
Продолжительность : 6 м. 10 с.
Режим общего битрейта : Постоянный
Общий поток : 320 Кбит/сек
Альбом : Never Turn Your Back On A Frie
Трек : Breadfan
Трек/Положение : 1
Исполнитель : Budgie
Жанр : Hard Rock
Дата записи : 1973
Библиотека кодирования : LAME3.97b
Аудио
Формат : MPEG Audio
Версия формата : Version 1
Профиль формата : Layer 3
Продолжительность : 6 м. 11 с.
Вид битрейта : Постоянный
Битрейт : 320 Кбит/сек
Каналы : 2 канала
Частота : 44,1 КГц
Метод сжатия : С потерями
Размер потока : 14,1 Мбайт (100%)
Библиотека кодирования : LAME3.97b
Настройки программы : -m s -V 4 -q 0 -lowpass 20.5
Общее
Полное имя : D:\MEDIA\Audio\Budgie\1973-Never Turn Your Back on a Friend\02-Baby Please Don't Go.mp3
Формат : MPEG Audio
Размер файла : 12,6 Мбайт
Продолжительность : 5 м. 30 с.
Режим общего битрейта : Постоянный
Общий поток : 320 Кбит/сек
Альбом : Never Turn Your Back On A Frie
Трек : Baby Please Don't Go
Трек/Положение : 2
Исполнитель : Budgie
Жанр : Hard Rock
Дата записи : 1973
Библиотека кодирования : LAME3.97b
Аудио
Формат : MPEG Audio
Версия формата : Version 1
Профиль формата : Layer 3
Продолжительность : 5 м. 30 с.
Вид битрейта : Постоянный
Битрейт : 320 Кбит/сек
Каналы : 2 канала
Частота : 44,1 КГц
Метод сжатия : С потерями
Размер потока : 12,6 Мбайт (100%)
Библиотека кодирования : LAME3.97b
Настройки программы : -m s -V 4 -q 0 -lowpass 20.5
Общее
Полное имя : D:\MEDIA\Audio\Budgie\1973-Never Turn Your Back on a Friend\03-You Know I'll Always Love You.mp3
Формат : MPEG Audio
Размер файла : 5,17 Мбайт
Продолжительность : 2 м. 15 с.
Режим общего битрейта : Постоянный
Общий поток : 320 Кбит/сек
Альбом : Never Turn Your Back On A Frie
Трек : You Know I'll Always Love You
Трек/Положение : 3
Исполнитель : Budgie
Жанр : Hard Rock
Дата записи : 1973
Библиотека кодирования : LAME3.97b
Аудио
Формат : MPEG Audio
Версия формата : Version 1
Профиль формата : Layer 3
Продолжительность : 2 м. 15 с.
Вид битрейта : Постоянный
Битрейт : 320 Кбит/сек
Каналы : 2 канала
Частота : 44,1 КГц
Метод сжатия : С потерями
Размер потока : 5,16 Мбайт (100%)
Библиотека кодирования : LAME3.97b
Настройки программы : -m s -V 4 -q 0 -lowpass 20.5
Общее
Полное имя : D:\MEDIA\Audio\Budgie\1973-Never Turn Your Back on a Friend\04-You're The Biggest Thing Since.mp3
Формат : MPEG Audio
Размер файла : 20,3 Мбайт
Продолжительность : 8 м. 51 с.
Режим общего битрейта : Постоянный
Общий поток : 320 Кбит/сек
Альбом : Never Turn Your Back On A Frie
Трек : You're The Biggest Thing Since
Трек/Положение : 4
Исполнитель : Budgie
Жанр : Hard Rock
Дата записи : 1973
Библиотека кодирования : LAME3.97b
Аудио
Формат : MPEG Audio
Версия формата : Version 1
Профиль формата : Layer 3
Продолжительность : 8 м. 51 с.
Вид битрейта : Постоянный
Битрейт : 320 Кбит/сек
Каналы : 2 канала
Частота : 44,1 КГц
Метод сжатия : С потерями
Размер потока : 20,3 Мбайт (100%)
Библиотека кодирования : LAME3.97b
Настройки программы : -m s -V 4 -q 0 -lowpass 20.5
Общее
Полное имя : D:\MEDIA\Audio\Budgie\1973-Never Turn Your Back on a Friend\05-In The Grip Of A Tyrefitter's.mp3
Формат : MPEG Audio
Размер файла : 14,9 Мбайт
Продолжительность : 6 м. 29 с.
Режим общего битрейта : Постоянный
Общий поток : 320 Кбит/сек
Альбом : Never Turn Your Back On A Frie
Трек : In The Grip Of A Tyrefitter's
Трек/Положение : 5
Исполнитель : Budgie
Жанр : Hard Rock
Дата записи : 1973
Библиотека кодирования : LAME3.97b
Аудио
Формат : MPEG Audio
Версия формата : Version 1
Профиль формата : Layer 3
Продолжительность : 6 м. 30 с.
Вид битрейта : Постоянный
Битрейт : 320 Кбит/сек
Каналы : 2 канала
Частота : 44,1 КГц
Метод сжатия : С потерями
Размер потока : 14,9 Мбайт (100%)
Библиотека кодирования : LAME3.97b
Настройки программы : -m s -V 4 -q 0 -lowpass 20.5
Общее
Полное имя : D:\MEDIA\Audio\Budgie\1973-Never Turn Your Back on a Friend\06-Riding My Nightmare.mp3
Формат : MPEG Audio
Размер файла : 6,22 Мбайт
Продолжительность : 2 м. 42 с.
Режим общего битрейта : Постоянный
Общий поток : 320 Кбит/сек
Альбом : Never Turn Your Back On A Frie
Трек : Riding My Nightmare
Трек/Положение : 6
Исполнитель : Budgie
Жанр : Hard Rock
Дата записи : 1973
Библиотека кодирования : LAME3.97b
Аудио
Формат : MPEG Audio
Версия формата : Version 1
Профиль формата : Layer 3
Продолжительность : 2 м. 42 с.
Вид битрейта : Постоянный
Битрейт : 320 Кбит/сек
Каналы : 2 канала
Частота : 44,1 КГц
Метод сжатия : С потерями
Размер потока : 6,21 Мбайт (100%)
Библиотека кодирования : LAME3.97b
Настройки программы : -m s -V 4 -q 0 -lowpass 20.5
Общее
Полное имя : D:\MEDIA\Audio\Budgie\1973-Never Turn Your Back on a Friend\07-Parents.mp3
Формат : MPEG Audio
Размер файла : 23,9 Мбайт
Продолжительность : 10 м.
Режим общего битрейта : Постоянный
Общий поток : 320 Кбит/сек
Альбом : Never Turn Your Back On A Frie
Трек : Parents
Трек/Положение : 7
Исполнитель : Budgie
Жанр : Hard Rock
Дата записи : 1973
Библиотека кодирования : LAME3.97b
Аудио
Формат : MPEG Audio
Версия формата : Version 1
Профиль формата : Layer 3
Продолжительность : 10 м.
Вид битрейта : Постоянный
Битрейт : 320 Кбит/сек
Каналы : 2 канала
Частота : 44,1 КГц
Метод сжатия : С потерями
Размер потока : 23,8 Мбайт (100%)
Библиотека кодирования : LAME3.97b
Настройки программы : -m s -V 4 -q 0 -lowpass 20.5

1974 In For The Kill (320 Kbps)

Продолжительность: 00:41:39
Трек лист:
1. In For The Kill (6:27)
2. Crash Course In Brain Surgery (2:39)
3. Wondering What Everyone Knows (2:55)
4. Zoom Club (9:57)
5. Hammer And Tongs (6:57)
6. Running From My Soul (3:39)
7. Living On Your Own (9:01)

mediainfo

Общее
Полное имя : D:\MEDIA\Audio\Budgie\1974-In For The Kill\01-In For The Kill.mp3
Формат : MPEG Audio
Размер файла : 14,8 Мбайт
Продолжительность : 6 м. 27 с.
Режим общего битрейта : Постоянный
Общий поток : 320 Кбит/сек
Альбом : In For The Kill
Трек : In For The Kill
Трек/Положение : 1
Исполнитель : Budgie
Жанр : Hard Rock
Дата записи : 1974
Библиотека кодирования : LAME3.97b
Аудио
Формат : MPEG Audio
Версия формата : Version 1
Профиль формата : Layer 3
Продолжительность : 6 м. 27 с.
Вид битрейта : Постоянный
Битрейт : 320 Кбит/сек
Каналы : 2 канала
Частота : 44,1 КГц
Метод сжатия : С потерями
Размер потока : 14,8 Мбайт (100%)
Библиотека кодирования : LAME3.97b
Настройки программы : -m s -V 4 -q 0 -lowpass 20.5
Общее
Полное имя : D:\MEDIA\Audio\Budgie\1974-In For The Kill\02-Crash Course In Brain Surgery.mp3
Формат : MPEG Audio
Размер файла : 6,09 Мбайт
Продолжительность : 2 м. 39 с.
Режим общего битрейта : Постоянный
Общий поток : 320 Кбит/сек
Альбом : In For The Kill
Трек : Crash Course In Brain Surgery
Трек/Положение : 2
Исполнитель : Budgie
Жанр : Hard Rock
Дата записи : 1974
Библиотека кодирования : LAME3.97b
Аудио
Формат : MPEG Audio
Версия формата : Version 1
Профиль формата : Layer 3
Продолжительность : 2 м. 39 с.
Вид битрейта : Постоянный
Битрейт : 320 Кбит/сек
Каналы : 2 канала
Частота : 44,1 КГц
Метод сжатия : С потерями
Размер потока : 6,08 Мбайт (100%)
Библиотека кодирования : LAME3.97b
Настройки программы : -m s -V 4 -q 0 -lowpass 20.5
Общее
Полное имя : D:\MEDIA\Audio\Budgie\1974-In For The Kill\03-Wondering What Everyone Knows.mp3
Формат : MPEG Audio
Размер файла : 6,69 Мбайт
Продолжительность : 2 м. 55 с.
Режим общего битрейта : Постоянный
Общий поток : 320 Кбит/сек
Альбом : In For The Kill
Трек : Wondering What Everyone Knows
Трек/Положение : 3
Исполнитель : Budgie
Жанр : Hard Rock
Дата записи : 1974
Библиотека кодирования : LAME3.97b
Аудио
Формат : MPEG Audio
Версия формата : Version 1
Профиль формата : Layer 3
Продолжительность : 2 м. 55 с.
Вид битрейта : Постоянный
Битрейт : 320 Кбит/сек
Каналы : 2 канала
Частота : 44,1 КГц
Метод сжатия : С потерями
Размер потока : 6,68 Мбайт (100%)
Библиотека кодирования : LAME3.97b
Настройки программы : -m s -V 4 -q 0 -lowpass 20.5
Общее
Полное имя : D:\MEDIA\Audio\Budgie\1974-In For The Kill\04-Zoom Club.mp3
Формат : MPEG Audio
Размер файла : 22,8 Мбайт
Продолжительность : 9 м. 57 с.
Режим общего битрейта : Постоянный
Общий поток : 320 Кбит/сек
Альбом : In For The Kill
Трек : Zoom Club
Трек/Положение : 4
Исполнитель : Budgie
Жанр : Hard Rock
Дата записи : 1974
Библиотека кодирования : LAME3.97b
Аудио
Формат : MPEG Audio
Версия формата : Version 1
Профиль формата : Layer 3
Продолжительность : 9 м. 58 с.
Вид битрейта : Постоянный
Битрейт : 320 Кбит/сек
Каналы : 2 канала
Частота : 44,1 КГц
Метод сжатия : С потерями
Размер потока : 22,8 Мбайт (100%)
Библиотека кодирования : LAME3.97b
Настройки программы : -m s -V 4 -q 0 -lowpass 20.5
Общее
Полное имя : D:\MEDIA\Audio\Budgie\1974-In For The Kill\05-Hammer And Tongs.mp3
Формат : MPEG Audio
Размер файла : 16,0 Мбайт
Продолжительность : 6 м. 58 с.
Режим общего битрейта : Постоянный
Общий поток : 320 Кбит/сек
Альбом : In For The Kill
Трек : Hammer And Tongs
Трек/Положение : 5
Исполнитель : Budgie
Жанр : Hard Rock
Дата записи : 1974
Библиотека кодирования : LAME3.97b
Аудио
Формат : MPEG Audio
Версия формата : Version 1
Профиль формата : Layer 3
Продолжительность : 6 м. 58 с.
Вид битрейта : Постоянный
Битрейт : 320 Кбит/сек
Каналы : 2 канала
Частота : 44,1 КГц
Метод сжатия : С потерями
Размер потока : 15,9 Мбайт (100%)
Библиотека кодирования : LAME3.97b
Настройки программы : -m s -V 4 -q 0 -lowpass 20.5
Общее
Полное имя : D:\MEDIA\Audio\Budgie\1974-In For The Kill\06-Running From My Soul.mp3
Формат : MPEG Audio
Размер файла : 8,40 Мбайт
Продолжительность : 3 м. 40 с.
Режим общего битрейта : Постоянный
Общий поток : 320 Кбит/сек
Альбом : In For The Kill
Трек : Running From My Soul
Трек/Положение : 6
Исполнитель : Budgie
Жанр : Hard Rock
Дата записи : 1974
Библиотека кодирования : LAME3.97b
Аудио
Формат : MPEG Audio
Версия формата : Version 1
Профиль формата : Layer 3
Продолжительность : 3 м. 40 с.
Вид битрейта : Постоянный
Битрейт : 320 Кбит/сек
Каналы : 2 канала
Частота : 44,1 КГц
Метод сжатия : С потерями
Размер потока : 8,39 Мбайт (100%)
Библиотека кодирования : LAME3.97b
Настройки программы : -m s -V 4 -q 0 -lowpass 20.5
Общее
Полное имя : D:\MEDIA\Audio\Budgie\1974-In For The Kill\07-Living On Your Own.mp3
Формат : MPEG Audio
Размер файла : 20,7 Мбайт
Продолжительность : 9 м. 1 с.
Режим общего битрейта : Постоянный
Общий поток : 320 Кбит/сек
Альбом : In For The Kill
Трек : Living On Your Own
Трек/Положение : 7
Исполнитель : Budgie
Жанр : Hard Rock
Дата записи : 1974
Библиотека кодирования : LAME3.97b
Аудио
Формат : MPEG Audio
Версия формата : Version 1
Профиль формата : Layer 3
Продолжительность : 9 м. 2 с.
Вид битрейта : Постоянный
Битрейт : 320 Кбит/сек
Каналы : 2 канала
Частота : 44,1 КГц
Метод сжатия : С потерями
Размер потока : 20,7 Мбайт (100%)
Библиотека кодирования : LAME3.97b
Настройки программы : -m s -V 4 -q 0 -lowpass 20.5

1975 Bandolier (320 Kbps)

Продолжительность: 00:34:22
Трек лист:
1. Breaking All The House Rules (7:23)
2. Slipaway (4:02)
3. Who Do You Want For Your Love? (6:09)
4. I Can't See My Feelings (5:54)
5. I Ain't No Mountain (3:36)
6. Napoleon Bona (part I-II) (7:15)

mediainfo

Общее
Полное имя : D:\MEDIA\Audio\Budgie\1975-Bandolier\01-Breaking All The House Rules.mp3
Формат : MPEG Audio
Размер файла : 16,9 Мбайт
Продолжительность : 7 м. 23 с.
Режим общего битрейта : Постоянный
Общий поток : 320 Кбит/сек
Альбом : Bandolier
Трек : Breaking All The House Rules
Трек/Положение : 1
Исполнитель : Budgie
Жанр : Hard Rock
Дата записи : 1975
Библиотека кодирования : LAME3.97b
Аудио
Формат : MPEG Audio
Версия формата : Version 1
Профиль формата : Layer 3
Продолжительность : 7 м. 23 с.
Вид битрейта : Постоянный
Битрейт : 320 Кбит/сек
Каналы : 2 канала
Частота : 44,1 КГц
Метод сжатия : С потерями
Размер потока : 16,9 Мбайт (100%)
Библиотека кодирования : LAME3.97b
Настройки программы : -m s -V 4 -q 0 -lowpass 20.5
Общее
Полное имя : D:\MEDIA\Audio\Budgie\1975-Bandolier\02-Slipaway.mp3
Формат : MPEG Audio
Размер файла : 9,25 Мбайт
Продолжительность : 4 м. 2 с.
Режим общего битрейта : Постоянный
Общий поток : 320 Кбит/сек
Альбом : Bandolier
Трек : Slipaway
Трек/Положение : 2
Исполнитель : Budgie
Жанр : Hard Rock
Дата записи : 1975
Библиотека кодирования : LAME3.97b
Аудио
Формат : MPEG Audio
Версия формата : Version 1
Профиль формата : Layer 3
Продолжительность : 4 м. 2 с.
Вид битрейта : Постоянный
Битрейт : 320 Кбит/сек
Каналы : 2 канала
Частота : 44,1 КГц
Метод сжатия : С потерями
Размер потока : 9,25 Мбайт (100%)
Библиотека кодирования : LAME3.97b
Настройки программы : -m s -V 4 -q 0 -lowpass 20.5
Общее
Полное имя : D:\MEDIA\Audio\Budgie\1975-Bandolier\03-Who Do You Want For Your Love.mp3
Формат : MPEG Audio
Размер файла : 14,1 Мбайт
Продолжительность : 6 м. 10 с.
Режим общего битрейта : Постоянный
Общий поток : 320 Кбит/сек
Альбом : Bandolier
Трек : Who Do You Want For Your Love?
Трек/Положение : 3
Исполнитель : Budgie
Жанр : Hard Rock
Дата записи : 1975
Библиотека кодирования : LAME3.97b
Аудио
Формат : MPEG Audio
Версия формата : Version 1
Профиль формата : Layer 3
Продолжительность : 6 м. 10 с.
Вид битрейта : Постоянный
Битрейт : 320 Кбит/сек
Каналы : 2 канала
Частота : 44,1 КГц
Метод сжатия : С потерями
Размер потока : 14,1 Мбайт (100%)
Библиотека кодирования : LAME3.97b
Настройки программы : -m s -V 4 -q 0 -lowpass 20.5
Общее
Полное имя : D:\MEDIA\Audio\Budgie\1975-Bandolier\04-I Can't See My Feelings.mp3
Формат : MPEG Audio
Размер файла : 13,5 Мбайт
Продолжительность : 5 м. 54 с.
Режим общего битрейта : Постоянный
Общий поток : 320 Кбит/сек
Альбом : Bandolier
Трек : I Can't See My Feelings
Трек/Положение : 4
Исполнитель : Budgie
Жанр : Hard Rock
Дата записи : 1975
Библиотека кодирования : LAME3.97b
Аудио
Формат : MPEG Audio
Версия формата : Version 1
Профиль формата : Layer 3
Продолжительность : 5 м. 55 с.
Вид битрейта : Постоянный
Битрейт : 320 Кбит/сек
Каналы : 2 канала
Частота : 44,1 КГц
Метод сжатия : С потерями
Размер потока : 13,5 Мбайт (100%)
Библиотека кодирования : LAME3.97b
Настройки программы : -m s -V 4 -q 0 -lowpass 20.5
Общее
Полное имя : D:\MEDIA\Audio\Budgie\1975-Bandolier\05-I Ain't No Mountain.mp3
Формат : MPEG Audio
Размер файла : 8,26 Мбайт
Продолжительность : 3 м. 36 с.
Режим общего битрейта : Постоянный
Общий поток : 320 Кбит/сек
Альбом : Bandolier
Трек : I Ain't No Mountain
Трек/Положение : 5
Исполнитель : Budgie
Жанр : Hard Rock
Дата записи : 1975
Библиотека кодирования : LAME3.97b
Аудио
Формат : MPEG Audio
Версия формата : Version 1
Профиль формата : Layer 3
Продолжительность : 3 м. 36 с.
Вид битрейта : Постоянный
Битрейт : 320 Кбит/сек
Каналы : 2 канала
Частота : 44,1 КГц
Метод сжатия : С потерями
Размер потока : 8,25 Мбайт (100%)
Библиотека кодирования : LAME3.97b
Настройки программы : -m s -V 4 -q 0 -lowpass 20.5
Общее
Полное имя : D:\MEDIA\Audio\Budgie\1975-Bandolier\06-Napoleon Bona (part I-II).mp3
Формат : MPEG Audio
Размер файла : 16,6 Мбайт
Продолжительность : 7 м. 15 с.
Режим общего битрейта : Постоянный
Общий поток : 320 Кбит/сек
Альбом : Bandolier
Трек : Napoleon Bona (part I-II)
Трек/Положение : 6
Исполнитель : Budgie
Жанр : Hard Rock
Дата записи : 1975
Библиотека кодирования : LAME3.97b
Аудио
Формат : MPEG Audio
Версия формата : Version 1
Профиль формата : Layer 3
Продолжительность : 7 м. 15 с.
Вид битрейта : Постоянный
Битрейт : 320 Кбит/сек
Каналы : 2 канала
Частота : 44,1 КГц
Метод сжатия : С потерями
Размер потока : 16,6 Мбайт (100%)
Библиотека кодирования : LAME3.97b
Настройки программы : -m s -V 4 -q 0 -lowpass 20.5

1978 Impeckable (320 Kbps)

Продолжительность: 00:41:15
Трек лист:
1. Melt The Ice Away (3:33)
2. Love For You And Me (4:04)
3. All At Sea (4:21)
4. Dish It Up (4:21)
5. Pyramids (4:23)
6. Smile Boy Smile (4:31)
7. I'm A Faker Too (4:48)
8. Don't Go Away (4:56)
9. Don't Dilute The Water (6:13)

mediainfo

Общее
Полное имя : D:\MEDIA\Audio\Budgie\1978-Impeckable\01-Melt The Ice Away.mp3
Формат : MPEG Audio
Размер файла : 8,15 Мбайт
Продолжительность : 3 м. 33 с.
Режим общего битрейта : Постоянный
Общий поток : 320 Кбит/сек
Альбом : Impeckable
Трек : Melt The Ice Away
Трек/Положение : 1
Исполнитель : Budgie
Жанр : Rock
Дата записи : 1978
Библиотека кодирования : LAME3.93
Аудио
Формат : MPEG Audio
Версия формата : Version 1
Профиль формата : Layer 3
Продолжительность : 3 м. 33 с.
Вид битрейта : Постоянный
Битрейт : 320 Кбит/сек
Каналы : 2 канала
Частота : 44,1 КГц
Метод сжатия : С потерями
Размер потока : 8,14 Мбайт (100%)
Библиотека кодирования : LAME3.93
Общее
Полное имя : D:\MEDIA\Audio\Budgie\1978-Impeckable\02-Love For You And Me.mp3
Формат : MPEG Audio
Размер файла : 9,32 Мбайт
Продолжительность : 4 м. 4 с.
Режим общего битрейта : Постоянный
Общий поток : 320 Кбит/сек
Альбом : Impeckable
Трек : Love For You And Me
Трек/Положение : 2
Исполнитель : Budgie
Жанр : Rock
Дата записи : 1978
Библиотека кодирования : LAME3.93
Аудио
Формат : MPEG Audio
Версия формата : Version 1
Профиль формата : Layer 3
Продолжительность : 4 м. 4 с.
Вид битрейта : Постоянный
Битрейт : 320 Кбит/сек
Каналы : 2 канала
Частота : 44,1 КГц
Метод сжатия : С потерями
Размер потока : 9,32 Мбайт (100%)
Библиотека кодирования : LAME3.93
Общее
Полное имя : D:\MEDIA\Audio\Budgie\1978-Impeckable\03-All At Sea.mp3
Формат : MPEG Audio
Размер файла : 9,97 Мбайт
Продолжительность : 4 м. 21 с.
Режим общего битрейта : Постоянный
Общий поток : 320 Кбит/сек
Альбом : Impeckable
Трек : All At Sea
Трек/Положение : 3
Исполнитель : Budgie
Жанр : Rock
Дата записи : 1978
Библиотека кодирования : LAME3.93
Аудио
Формат : MPEG Audio
Версия формата : Version 1
Профиль формата : Layer 3
Продолжительность : 4 м. 21 с.
Вид битрейта : Постоянный
Битрейт : 320 Кбит/сек
Каналы : 2 канала
Частота : 44,1 КГц
Метод сжатия : С потерями
Размер потока : 9,96 Мбайт (100%)
Библиотека кодирования : LAME3.93
Общее
Полное имя : D:\MEDIA\Audio\Budgie\1978-Impeckable\04-Dish It Up.mp3
Формат : MPEG Audio
Размер файла : 9,98 Мбайт
Продолжительность : 4 м. 21 с.
Режим общего битрейта : Постоянный
Общий поток : 320 Кбит/сек
Альбом : Impeckable
Трек : Dish It Up
Трек/Положение : 4
Исполнитель : Budgie
Жанр : Rock
Дата записи : 1978
Библиотека кодирования : LAME3.93
Аудио
Формат : MPEG Audio
Версия формата : Version 1
Профиль формата : Layer 3
Продолжительность : 4 м. 21 с.
Вид битрейта : Постоянный
Битрейт : 320 Кбит/сек
Каналы : 2 канала
Частота : 44,1 КГц
Метод сжатия : С потерями
Размер потока : 9,98 Мбайт (100%)
Библиотека кодирования : LAME3.93
Общее
Полное имя : D:\MEDIA\Audio\Budgie\1978-Impeckable\05-Pyramids.mp3
Формат : MPEG Audio
Размер файла : 10,0 Мбайт
Продолжительность : 4 м. 23 с.
Режим общего битрейта : Постоянный
Общий поток : 320 Кбит/сек
Альбом : Impeckable
Трек : Pyramids
Трек/Положение : 5
Исполнитель : Budgie
Жанр : Rock
Дата записи : 1978
Библиотека кодирования : LAME3.93
Аудио
Формат : MPEG Audio
Версия формата : Version 1
Профиль формата : Layer 3
Продолжительность : 4 м. 23 с.
Вид битрейта : Постоянный
Битрейт : 320 Кбит/сек
Каналы : 2 канала
Частота : 44,1 КГц
Метод сжатия : С потерями
Размер потока : 10,0 Мбайт (100%)
Библиотека кодирования : LAME3.93
Общее
Полное имя : D:\MEDIA\Audio\Budgie\1978-Impeckable\06-Smile Boy Smile.mp3
Формат : MPEG Audio
Размер файла : 10,4 Мбайт
Продолжительность : 4 м. 31 с.
Режим общего битрейта : Постоянный
Общий поток : 320 Кбит/сек
Альбом : Impeckable
Трек : Smile Boy Smile
Трек/Положение : 6
Исполнитель : Budgie
Жанр : Rock
Дата записи : 1978
Библиотека кодирования : LAME3.93
Аудио
Формат : MPEG Audio
Версия формата : Version 1
Профиль формата : Layer 3
Продолжительность : 4 м. 32 с.
Вид битрейта : Постоянный
Битрейт : 320 Кбит/сек
Каналы : 2 канала
Частота : 44,1 КГц
Метод сжатия : С потерями
Размер потока : 10,4 Мбайт (100%)
Библиотека кодирования : LAME3.93
Общее
Полное имя : D:\MEDIA\Audio\Budgie\1978-Impeckable\07-I'm A Faker Too.mp3
Формат : MPEG Audio
Размер файла : 11,0 Мбайт
Продолжительность : 4 м. 48 с.
Режим общего битрейта : Постоянный
Общий поток : 320 Кбит/сек
Альбом : Impeckable
Трек : I'm A Faker Too
Трек/Положение : 7
Исполнитель : Budgie
Жанр : Rock
Дата записи : 1978
Библиотека кодирования : LAME3.93
Аудио
Формат : MPEG Audio
Версия формата : Version 1
Профиль формата : Layer 3
Продолжительность : 4 м. 48 с.
Вид битрейта : Постоянный
Битрейт : 320 Кбит/сек
Каналы : 2 канала
Частота : 44,1 КГц
Метод сжатия : С потерями
Размер потока : 11,0 Мбайт (100%)
Библиотека кодирования : LAME3.93
Общее
Полное имя : D:\MEDIA\Audio\Budgie\1978-Impeckable\08-Don't Go Away.mp3
Формат : MPEG Audio
Размер файла : 11,3 Мбайт
Продолжительность : 4 м. 56 с.
Режим общего битрейта : Постоянный
Общий поток : 320 Кбит/сек
Альбом : Impeckable
Трек : Don't Go Away
Трек/Положение : 8
Исполнитель : Budgie
Жанр : Rock
Дата записи : 1978
Библиотека кодирования : LAME3.93
Аудио
Формат : MPEG Audio
Версия формата : Version 1
Профиль формата : Layer 3
Продолжительность : 4 м. 57 с.
Вид битрейта : Постоянный
Битрейт : 320 Кбит/сек
Каналы : 2 канала
Частота : 44,1 КГц
Метод сжатия : С потерями
Размер потока : 11,3 Мбайт (100%)
Библиотека кодирования : LAME3.93
Общее
Полное имя : D:\MEDIA\Audio\Budgie\1978-Impeckable\09-Don't Dilute The Water.mp3
Формат : MPEG Audio
Размер файла : 14,2 Мбайт
Продолжительность : 6 м. 13 с.
Режим общего битрейта : Постоянный
Общий поток : 320 Кбит/сек
Альбом : Impeckable
Трек : Don't Dilute The Water
Трек/Положение : 9
Исполнитель : Budgie
Жанр : Rock
Дата записи : 1978
Библиотека кодирования : LAME3.93
Аудио
Формат : MPEG Audio
Версия формата : Version 1
Профиль формата : Layer 3
Продолжительность : 6 м. 13 с.
Вид битрейта : Постоянный
Битрейт : 320 Кбит/сек
Каналы : 2 канала
Частота : 44,1 КГц
Метод сжатия : С потерями
Размер потока : 14,2 Мбайт (100%)
Библиотека кодирования : LAME3.93

1980 Power Supply (320 Kbps)

Продолжительность: 00:37:24
Трек лист:
1. Forearm Smash (5:40)
2. Hellbender (3:25)
3. Heavy Revolution (4:28)
4. Gunslinger (5:03)
5. Power Supply (3:41)
6. Secrets In My Head (3:58)
7. Time To Remember (5:27)
8. Crime Against The World (5:37)

mediainfo

Общее
Полное имя : D:\MEDIA\Audio\Budgie\1980-Power Supply\01-Forearm Smash.mp3
Формат : MPEG Audio
Размер файла : 13,0 Мбайт
Продолжительность : 5 м. 40 с.
Режим общего битрейта : Постоянный
Общий поток : 320 Кбит/сек
Альбом : Power Supply
Трек : Forearm Smash
Трек/Положение : 1
Исполнитель : Budgie
Жанр : Rock
Дата записи : 1980
Библиотека кодирования : LAME3.93
Аудио
Формат : MPEG Audio
Версия формата : Version 1
Профиль формата : Layer 3
Продолжительность : 5 м. 40 с.
Вид битрейта : Постоянный
Битрейт : 320 Кбит/сек
Каналы : 2 канала
Частота : 44,1 КГц
Метод сжатия : С потерями
Размер потока : 13,0 Мбайт (100%)
Библиотека кодирования : LAME3.93
Общее
Полное имя : D:\MEDIA\Audio\Budgie\1980-Power Supply\02-Hellbender.mp3
Формат : MPEG Audio
Размер файла : 7,86 Мбайт
Продолжительность : 3 м. 25 с.
Режим общего битрейта : Постоянный
Общий поток : 320 Кбит/сек
Альбом : Power Supply
Трек : Hellbender
Трек/Положение : 2
Исполнитель : Budgie
Жанр : Rock
Дата записи : 1980
Библиотека кодирования : LAME3.93
Аудио
Формат : MPEG Audio
Версия формата : Version 1
Профиль формата : Layer 3
Продолжительность : 3 м. 26 с.
Вид битрейта : Постоянный
Битрейт : 320 Кбит/сек
Каналы : 2 канала
Частота : 44,1 КГц
Метод сжатия : С потерями
Размер потока : 7,85 Мбайт (100%)
Библиотека кодирования : LAME3.93
Общее
Полное имя : D:\MEDIA\Audio\Budgie\1980-Power Supply\03-Heavy Revolution.mp3
Формат : MPEG Audio
Размер файла : 10,2 Мбайт
Продолжительность : 4 м. 28 с.
Режим общего битрейта : Постоянный
Общий поток : 320 Кбит/сек
Альбом : Power Supply
Трек : Heavy Revolution
Трек/Положение : 3
Исполнитель : Budgie
Жанр : Rock
Дата записи : 1980
Библиотека кодирования : LAME3.93
Аудио
Формат : MPEG Audio
Версия формата : Version 1
Профиль формата : Layer 3
Продолжительность : 4 м. 28 с.
Вид битрейта : Постоянный
Битрейт : 320 Кбит/сек
Каналы : 2 канала
Частота : 44,1 КГц
Метод сжатия : С потерями
Размер потока : 10,2 Мбайт (100%)
Библиотека кодирования : LAME3.93
Общее
Полное имя : D:\MEDIA\Audio\Budgie\1980-Power Supply\04-Gunslinger.mp3
Формат : MPEG Audio
Размер файла : 11,6 Мбайт
Продолжительность : 5 м. 3 с.
Режим общего битрейта : Постоянный
Общий поток : 320 Кбит/сек
Альбом : Power Supply
Трек : Gunslinger
Трек/Положение : 4
Исполнитель : Budgie
Жанр : Rock
Дата записи : 1980
Библиотека кодирования : LAME3.93
Аудио
Формат : MPEG Audio
Версия формата : Version 1
Профиль формата : Layer 3
Продолжительность : 5 м. 3 с.
Вид битрейта : Постоянный
Битрейт : 320 Кбит/сек
Каналы : 2 канала
Частота : 44,1 КГц
Метод сжатия : С потерями
Размер потока : 11,6 Мбайт (100%)
Библиотека кодирования : LAME3.93
Общее
Полное имя : D:\MEDIA\Audio\Budgie\1980-Power Supply\05-Power Supply.mp3
Формат : MPEG Audio
Размер файла : 8,45 Мбайт
Продолжительность : 3 м. 41 с.
Режим общего битрейта : Постоянный
Общий поток : 320 Кбит/сек
Альбом : Power Supply
Трек : Power Supply
Трек/Положение : 5
Исполнитель : Budgie
Жанр : Rock
Дата записи : 1980
Библиотека кодирования : LAME3.93
Аудио
Формат : MPEG Audio
Версия формата : Version 1
Профиль формата : Layer 3
Продолжительность : 3 м. 41 с.
Вид битрейта : Постоянный
Битрейт : 320 Кбит/сек
Каналы : 2 канала
Частота : 44,1 КГц
Метод сжатия : С потерями
Размер потока : 8,45 Мбайт (100%)
Библиотека кодирования : LAME3.93
Общее
Полное имя : D:\MEDIA\Audio\Budgie\1980-Power Supply\06-Secrets In My Head.mp3
Формат : MPEG Audio
Размер файла : 9,09 Мбайт
Продолжительность : 3 м. 58 с.
Режим общего битрейта : Постоянный
Общий поток : 320 Кбит/сек
Альбом : Power Supply
Трек : Secrets In My Head
Трек/Положение : 6
Исполнитель : Budgie
Жанр : Rock
Дата записи : 1980
Библиотека кодирования : LAME3.93
Аудио
Формат : MPEG Audio
Версия формата : Version 1
Профиль формата : Layer 3
Продолжительность : 3 м. 58 с.
Вид битрейта : Постоянный
Битрейт : 320 Кбит/сек
Каналы : 2 канала
Частота : 44,1 КГц
Метод сжатия : С потерями
Размер потока : 9,09 Мбайт (100%)
Библиотека кодирования : LAME3.93
Общее
Полное имя : D:\MEDIA\Audio\Budgie\1980-Power Supply\07-Time To Remember.mp3
Формат : MPEG Audio
Размер файла : 12,5 Мбайт
Продолжительность : 5 м. 27 с.
Режим общего битрейта : Постоянный
Общий поток : 320 Кбит/сек
Альбом : Power Supply
Трек : Time To Remember
Трек/Положение : 7
Исполнитель : Budgie
Жанр : Rock
Дата записи : 1980
Библиотека кодирования : LAME3.93
Аудио
Формат : MPEG Audio
Версия формата : Version 1
Профиль формата : Layer 3
Продолжительность : 5 м. 27 с.
Вид битрейта : Постоянный
Битрейт : 320 Кбит/сек
Каналы : 2 канала
Частота : 44,1 КГц
Метод сжатия : С потерями
Размер потока : 12,5 Мбайт (100%)
Библиотека кодирования : LAME3.93
Общее
Полное имя : D:\MEDIA\Audio\Budgie\1980-Power Supply\08-Crime Against The World.mp3
Формат : MPEG Audio
Размер файла : 12,9 Мбайт
Продолжительность : 5 м. 37 с.
Режим общего битрейта : Постоянный
Общий поток : 320 Кбит/сек
Альбом : Power Supply
Трек : Crime Against The World
Трек/Положение : 8
Исполнитель : Budgie
Жанр : Rock
Дата записи : 1980
Библиотека кодирования : LAME3.93
Аудио
Формат : MPEG Audio
Версия формата : Version 1
Профиль формата : Layer 3
Продолжительность : 5 м. 37 с.
Вид битрейта : Постоянный
Битрейт : 320 Кбит/сек
Каналы : 2 канала
Частота : 44,1 КГц
Метод сжатия : С потерями
Размер потока : 12,9 Мбайт (100%)
Библиотека кодирования : LAME3.93

1981 Nightflight (320 Kbps)

Продолжительность: 00:32:44
Трек лист:
1. I Turned To Stone (6:12)
2. Keeping A Rendezvous (3:45)
3. Reaper of the Glory (3:50)
4. She Used Me Up (3:18)
5. Don't Lay Down and Die (3:36)
6. Apparatus (2:52)
7. Superstar (3:28)
8. Change Your Ways (4:22)
9. Untitled Lullaby (1:16)

mediainfo

Общее
Полное имя : D:\MEDIA\Audio\Budgie\1981-Nightflight\01-I Turned To Stone.mp3
Формат : MPEG Audio
Размер файла : 14,2 Мбайт
Продолжительность : 6 м. 12 с.
Режим общего битрейта : Постоянный
Общий поток : 320 Кбит/сек
Альбом : Nightflight
Трек : I Turned To Stone
Трек/Положение : 1
Исполнитель : Budgie
Жанр : Rock
Дата записи : 1981
Библиотека кодирования : LAME3.93
Аудио
Формат : MPEG Audio
Версия формата : Version 1
Профиль формата : Layer 3
Продолжительность : 6 м. 12 с.
Вид битрейта : Постоянный
Битрейт : 320 Кбит/сек
Каналы : 2 канала
Частота : 44,1 КГц
Метод сжатия : С потерями
Размер потока : 14,2 Мбайт (100%)
Библиотека кодирования : LAME3.93
Общее
Полное имя : D:\MEDIA\Audio\Budgie\1981-Nightflight\02-Keeping A Rendezvous.mp3
Формат : MPEG Audio
Размер файла : 8,61 Мбайт
Продолжительность : 3 м. 45 с.
Режим общего битрейта : Постоянный
Общий поток : 320 Кбит/сек
Альбом : Nightflight
Трек : Keeping A Rendezvous
Трек/Положение : 2
Исполнитель : Budgie
Жанр : Rock
Дата записи : 1981
Библиотека кодирования : LAME3.93
Аудио
Формат : MPEG Audio
Версия формата : Version 1
Профиль формата : Layer 3
Продолжительность : 3 м. 45 с.
Вид битрейта : Постоянный
Битрейт : 320 Кбит/сек
Каналы : 2 канала
Частота : 44,1 КГц
Метод сжатия : С потерями
Размер потока : 8,60 Мбайт (100%)
Библиотека кодирования : LAME3.93
Общее
Полное имя : D:\MEDIA\Audio\Budgie\1981-Nightflight\03-Reaper of the Glory.mp3
Формат : MPEG Audio
Размер файла : 8,81 Мбайт
Продолжительность : 3 м. 50 с.
Режим общего битрейта : Постоянный
Общий поток : 320 Кбит/сек
Альбом : Nightflight
Трек : Reaper of the Glory
Трек/Положение : 3
Исполнитель : Budgie
Жанр : Rock
Дата записи : 1981
Библиотека кодирования : LAME3.93
Аудио
Формат : MPEG Audio
Версия формата : Version 1
Профиль формата : Layer 3
Продолжительность : 3 м. 51 с.
Вид битрейта : Постоянный
Битрейт : 320 Кбит/сек
Каналы : 2 канала
Частота : 44,1 КГц
Метод сжатия : С потерями
Размер потока : 8,81 Мбайт (100%)
Библиотека кодирования : LAME3.93
Общее
Полное имя : D:\MEDIA\Audio\Budgie\1981-Nightflight\04-She Used Me Up.mp3
Формат : MPEG Audio
Размер файла : 7,56 Мбайт
Продолжительность : 3 м. 18 с.
Режим общего битрейта : Постоянный
Общий поток : 320 Кбит/сек
Альбом : Nightflight
Трек : She Used Me Up
Трек/Положение : 4
Исполнитель : Budgie
Жанр : Rock
Дата записи : 1981
Библиотека кодирования : LAME3.93
Аудио
Формат : MPEG Audio
Версия формата : Version 1
Профиль формата : Layer 3
Продолжительность : 3 м. 18 с.
Вид битрейта : Постоянный
Битрейт : 320 Кбит/сек
Каналы : 2 канала
Частота : 44,1 КГц
Метод сжатия : С потерями
Размер потока : 7,55 Мбайт (100%)
Библиотека кодирования : LAME3.93
Общее
Полное имя : D:\MEDIA\Audio\Budgie\1981-Nightflight\05-Don't Lay Down and Die.mp3
Формат : MPEG Audio
Размер файла : 8,24 Мбайт
Продолжительность : 3 м. 36 с.
Режим общего битрейта : Постоянный
Общий поток : 320 Кбит/сек
Альбом : Nightflight
Трек : Don't Lay Down and Die
Трек/Положение : 5
Исполнитель : Budgie
Жанр : Rock
Дата записи : 1981
Библиотека кодирования : LAME3.93
Аудио
Формат : MPEG Audio
Версия формата : Version 1
Профиль формата : Layer 3
Продолжительность : 3 м. 36 с.
Вид битрейта : Постоянный
Битрейт : 320 Кбит/сек
Каналы : 2 канала
Частота : 44,1 КГц
Метод сжатия : С потерями
Размер потока : 8,24 Мбайт (100%)
Библиотека кодирования : LAME3.93
Общее
Полное имя : D:\MEDIA\Audio\Budgie\1981-Nightflight\06-Apparatus.mp3
Формат : MPEG Audio
Размер файла : 6,60 Мбайт
Продолжительность : 2 м. 52 с.
Режим общего битрейта : Постоянный
Общий поток : 320 Кбит/сек
Альбом : Nightflight
Трек : Apparatus
Трек/Положение : 6
Исполнитель : Budgie
Жанр : Rock
Дата записи : 1981
Библиотека кодирования : LAME3.93
Аудио
Формат : MPEG Audio
Версия формата : Version 1
Профиль формата : Layer 3
Продолжительность : 2 м. 53 с.
Вид битрейта : Постоянный
Битрейт : 320 Кбит/сек
Каналы : 2 канала
Частота : 44,1 КГц
Метод сжатия : С потерями
Размер потока : 6,60 Мбайт (100%)
Библиотека кодирования : LAME3.93
Общее
Полное имя : D:\MEDIA\Audio\Budgie\1981-Nightflight\07-Superstar.mp3
Формат : MPEG Audio
Размер файла : 7,96 Мбайт
Продолжительность : 3 м. 28 с.
Режим общего битрейта : Постоянный
Общий поток : 320 Кбит/сек
Альбом : Nightflight
Трек : Superstar
Трек/Положение : 7
Исполнитель : Budgie
Жанр : Rock
Дата записи : 1981
Библиотека кодирования : LAME3.93
Аудио
Формат : MPEG Audio
Версия формата : Version 1
Профиль формата : Layer 3
Продолжительность : 3 м. 28 с.
Вид битрейта : Постоянный
Битрейт : 320 Кбит/сек
Каналы : 2 канала
Частота : 44,1 КГц
Метод сжатия : С потерями
Размер потока : 7,96 Мбайт (100%)
Библиотека кодирования : LAME3.93
Общее
Полное имя : D:\MEDIA\Audio\Budgie\1981-Nightflight\08-Change Your Ways.mp3
Формат : MPEG Audio
Размер файла : 10,0 Мбайт
Продолжительность : 4 м. 22 с.
Режим общего битрейта : Постоянный
Общий поток : 320 Кбит/сек
Альбом : Nightflight
Трек : Change Your Ways
Трек/Положение : 8
Исполнитель : Budgie
Жанр : Rock
Дата записи : 1981
Библиотека кодирования : LAME3.93
Аудио
Формат : MPEG Audio
Версия формата : Version 1
Профиль формата : Layer 3
Продолжительность : 4 м. 22 с.
Вид битрейта : Постоянный
Битрейт : 320 Кбит/сек
Каналы : 2 канала
Частота : 44,1 КГц
Метод сжатия : С потерями
Размер потока : 10,0 Мбайт (100%)
Библиотека кодирования : LAME3.93
Общее
Полное имя : D:\MEDIA\Audio\Budgie\1981-Nightflight\09-Untitled Lullaby.mp3
Формат : MPEG Audio
Размер файла : 2,91 Мбайт
Продолжительность : 1 м. 16 с.
Режим общего битрейта : Постоянный
Общий поток : 320 Кбит/сек
Альбом : Nightflight
Трек : Untitled Lullaby
Трек/Положение : 9
Исполнитель : Budgie
Жанр : Rock
Дата записи : 1981
Библиотека кодирования : LAME3.93
Аудио
Формат : MPEG Audio
Версия формата : Version 1
Профиль формата : Layer 3
Продолжительность : 1 м. 16 с.
Вид битрейта : Постоянный
Битрейт : 320 Кбит/сек
Каналы : 2 канала
Частота : 44,1 КГц
Метод сжатия : С потерями
Размер потока : 2,91 Мбайт (100%)
Библиотека кодирования : LAME3.93

1982 Deliver Us from Evil (320 Kbps)

Продолжительность: 00:31:49
Трек лист:
1. Bored With Russia (3:49)
2. Don't Cry (3:19)
3. Truth Drug (4:23)
4. Young Girl (2:18)
5. Flowers In The Attic (5:12)
6. N.O.R.A.D. (Doomsday City) (4:15)
7. Give Me The Truth (4:11)
8. Hold On To Love (4:16)

mediainfo

Общее
Полное имя : D:\MEDIA\Audio\Budgie\1982-Deliver Us from Evil\01-Bored With Russia.mp3
Формат : MPEG Audio
Размер файла : 8,77 Мбайт
Продолжительность : 3 м. 49 с.
Режим общего битрейта : Постоянный
Общий поток : 320 Кбит/сек
Альбом : Deliver Us From Evil
Трек : Bored With Russia
Трек/Положение : 1
Исполнитель : Budgie
Жанр : Rock
Дата записи : 1982
Библиотека кодирования : LAME3.93
Аудио
Формат : MPEG Audio
Версия формата : Version 1
Профиль формата : Layer 3
Продолжительность : 3 м. 50 с.
Вид битрейта : Постоянный
Битрейт : 320 Кбит/сек
Каналы : 2 канала
Частота : 44,1 КГц
Метод сжатия : С потерями
Размер потока : 8,77 Мбайт (100%)
Библиотека кодирования : LAME3.93
Общее
Полное имя : D:\MEDIA\Audio\Budgie\1982-Deliver Us from Evil\02-Don't Cry.mp3
Формат : MPEG Audio
Размер файла : 7,61 Мбайт
Продолжительность : 3 м. 19 с.
Режим общего битрейта : Постоянный
Общий поток : 320 Кбит/сек
Альбом : Deliver Us From Evil
Трек : Don't Cry
Трек/Положение : 2
Исполнитель : Budgie
Жанр : Rock
Дата записи : 1982
Библиотека кодирования : LAME3.93
Аудио
Формат : MPEG Audio
Версия формата : Version 1
Профиль формата : Layer 3
Продолжительность : 3 м. 19 с.
Вид битрейта : Постоянный
Битрейт : 320 Кбит/сек
Каналы : 2 канала
Частота : 44,1 КГц
Метод сжатия : С потерями
Размер потока : 7,61 Мбайт (100%)
Библиотека кодирования : LAME3.93
Общее
Полное имя : D:\MEDIA\Audio\Budgie\1982-Deliver Us from Evil\03-Truth Drug.mp3
Формат : MPEG Audio
Размер файла : 10,1 Мбайт
Продолжительность : 4 м. 23 с.
Режим общего битрейта : Постоянный
Общий поток : 320 Кбит/сек
Альбом : Deliver Us From Evil
Трек : Truth Drug
Трек/Положение : 3
Исполнитель : Budgie
Жанр : Rock
Дата записи : 1982
Библиотека кодирования : LAME3.93
Аудио
Формат : MPEG Audio
Версия формата : Version 1
Профиль формата : Layer 3
Продолжительность : 4 м. 23 с.
Вид битрейта : Постоянный
Битрейт : 320 Кбит/сек
Каналы : 2 канала
Частота : 44,1 КГц
Метод сжатия : С потерями
Размер потока : 10,1 Мбайт (100%)
Библиотека кодирования : LAME3.93
Общее
Полное имя : D:\MEDIA\Audio\Budgie\1982-Deliver Us from Evil\04-Young Girl.mp3
Формат : MPEG Audio
Размер файла : 5,27 Мбайт
Продолжительность : 2 м. 18 с.
Режим общего битрейта : Постоянный
Общий поток : 320 Кбит/сек
Альбом : Deliver Us From Evil
Трек : Young Girl
Трек/Положение : 4
Исполнитель : Budgie
Жанр : Rock
Дата записи : 1982
Библиотека кодирования : LAME3.93
Аудио
Формат : MPEG Audio
Версия формата : Version 1
Профиль формата : Layer 3
Продолжительность : 2 м. 18 с.
Вид битрейта : Постоянный
Битрейт : 320 Кбит/сек
Каналы : 2 канала
Частота : 44,1 КГц
Метод сжатия : С потерями
Размер потока : 5,27 Мбайт (100%)
Библиотека кодирования : LAME3.93
Общее
Полное имя : D:\MEDIA\Audio\Budgie\1982-Deliver Us from Evil\05-Flowers In The Attic.mp3
Формат : MPEG Audio
Размер файла : 11,9 Мбайт
Продолжительность : 5 м. 12 с.
Режим общего битрейта : Постоянный
Общий поток : 320 Кбит/сек
Альбом : Deliver Us From Evil
Трек : Flowers In The Attic
Трек/Положение : 5
Исполнитель : Budgie
Жанр : Rock
Дата записи : 1982
Библиотека кодирования : LAME3.93
Аудио
Формат : MPEG Audio
Версия формата : Version 1
Профиль формата : Layer 3
Продолжительность : 5 м. 12 с.
Вид битрейта : Постоянный
Битрейт : 320 Кбит/сек
Каналы : 2 канала
Частота : 44,1 КГц
Метод сжатия : С потерями
Размер потока : 11,9 Мбайт (100%)
Библиотека кодирования : LAME3.93
Общее
Полное имя : D:\MEDIA\Audio\Budgie\1982-Deliver Us from Evil\06-NORAD(Doomsday City).O.R.A.D._(Doomsday_City).mp3
Формат : MPEG Audio
Размер файла : 9,76 Мбайт
Продолжительность : 4 м. 15 с.
Режим общего битрейта : Постоянный
Общий поток : 320 Кбит/сек
Альбом : Deliver Us From Evil
Трек : N.O.R.A.D. (Doomsday City)
Трек/Положение : 6
Исполнитель : Budgie
Жанр : Rock
Дата записи : 1982
Библиотека кодирования : LAME3.93
Аудио
Формат : MPEG Audio
Версия формата : Version 1
Профиль формата : Layer 3
Продолжительность : 4 м. 16 с.
Вид битрейта : Постоянный
Битрейт : 320 Кбит/сек
Каналы : 2 канала
Частота : 44,1 КГц
Метод сжатия : С потерями
Размер потока : 9,76 Мбайт (100%)
Библиотека кодирования : LAME3.93
Общее
Полное имя : D:\MEDIA\Audio\Budgie\1982-Deliver Us from Evil\07-Give Me The Truth.mp3
Формат : MPEG Audio
Размер файла : 9,60 Мбайт
Продолжительность : 4 м. 11 с.
Режим общего битрейта : Постоянный
Общий поток : 320 Кбит/сек
Альбом : Deliver Us From Evil
Трек : Give Me The Truth
Трек/Положение : 7
Исполнитель : Budgie
Жанр : Rock
Дата записи : 1982
Библиотека кодирования : LAME3.93
Аудио
Формат : MPEG Audio
Версия формата : Version 1
Профиль формата : Layer 3
Продолжительность : 4 м. 11 с.
Вид битрейта : Постоянный
Битрейт : 320 Кбит/сек
Каналы : 2 канала
Частота : 44,1 КГц
Метод сжатия : С потерями
Размер потока : 9,59 Мбайт (100%)
Библиотека кодирования : LAME3.93
Общее
Полное имя : D:\MEDIA\Audio\Budgie\1982-Deliver Us from Evil\10-Hold On To Love.mp3
Формат : MPEG Audio
Размер файла : 9,81 Мбайт
Продолжительность : 4 м. 16 с.
Режим общего битрейта : Постоянный
Общий поток : 320 Кбит/сек
Альбом : Deliver Us From Evil
Трек : Hold On To Love
Трек/Положение : 10
Исполнитель : Budgie
Жанр : Rock
Дата записи : 1982
Библиотека кодирования : LAME3.93
Аудио
Формат : MPEG Audio
Версия формата : Version 1
Профиль формата : Layer 3
Продолжительность : 4 м. 17 с.
Вид битрейта : Постоянный
Битрейт : 320 Кбит/сек
Каналы : 2 канала
Частота : 44,1 КГц
Метод сжатия : С потерями
Размер потока : 9,80 Мбайт (100%)
Библиотека кодирования : LAME3.93

2006 You're All Living In Cuckooland (320 Kbps)

Продолжительность: 00:53:20
Трек лист:
1. Justice (4:31)
2. Dead Men Don't Talk (6:08)
3. We're All Living In Cuckooland (6:04)
4. Falling (5:22)
5. Love Is Enough (2:25)
6. Tell Me Tell Me (4:47)
7. (Don't Want To) Find That Girl (6:28)
8. Captain (3:43)
9. I Don't Want To Throw You (5:31)
10. I'm Compressing The Comb On A (8:17)

mediainfo

Общее
Полное имя : D:\MEDIA\Audio\Budgie\2006-You're All Living In Cuckooland\01-Justice.mp3
Формат : MPEG Audio
Размер файла : 10,4 Мбайт
Продолжительность : 4 м. 31 с.
Режим общего битрейта : Постоянный
Общий поток : 320 Кбит/сек
Альбом : You're All Living In Cuckoolan
Трек : Justice
Трек/Положение : 1
Исполнитель : Budgie
Жанр : Hard Rock
Дата записи : 2006
Библиотека кодирования : LAME3.97b
Примечание : Exact Audio Copy
Аудио
Формат : MPEG Audio
Версия формата : Version 1
Профиль формата : Layer 3
Продолжительность : 4 м. 31 с.
Вид битрейта : Постоянный
Битрейт : 320 Кбит/сек
Каналы : 2 канала
Частота : 44,1 КГц
Метод сжатия : С потерями
Размер потока : 10,4 Мбайт (100%)
Библиотека кодирования : LAME3.97b
Настройки программы : -m s -V 4 -q 0 -lowpass 20.5
Общее
Полное имя : D:\MEDIA\Audio\Budgie\2006-You're All Living In Cuckooland\02-Dead Men Don't Talk.mp3
Формат : MPEG Audio
Размер файла : 14,1 Мбайт
Продолжительность : 6 м. 8 с.
Режим общего битрейта : Постоянный
Общий поток : 320 Кбит/сек
Альбом : You're All Living In Cuckoolan
Трек : Dead Men Don't Talk
Трек/Положение : 2
Исполнитель : Budgie
Жанр : Hard Rock
Дата записи : 2006
Библиотека кодирования : LAME3.97b
Примечание : Exact Audio Copy
Аудио
Формат : MPEG Audio
Версия формата : Version 1
Профиль формата : Layer 3
Продолжительность : 6 м. 8 с.
Вид битрейта : Постоянный
Битрейт : 320 Кбит/сек
Каналы : 2 канала
Частота : 44,1 КГц
Метод сжатия : С потерями
Размер потока : 14,1 Мбайт (100%)
Библиотека кодирования : LAME3.97b
Настройки программы : -m s -V 4 -q 0 -lowpass 20.5
Общее
Полное имя : D:\MEDIA\Audio\Budgie\2006-You're All Living In Cuckooland\03-We're All Living In Cuckooland.mp3
Формат : MPEG Audio
Размер файла : 13,9 Мбайт
Продолжительность : 6 м. 4 с.
Режим общего битрейта : Постоянный
Общий поток : 320 Кбит/сек
Альбом : You're All Living In Cuckoolan
Трек : We're All Living In Cuckooland
Трек/Положение : 3
Исполнитель : Budgie
Жанр : Hard Rock
Дата записи : 2006
Библиотека кодирования : LAME3.97b
Примечание : Exact Audio Copy
Аудио
Формат : MPEG Audio
Версия формата : Version 1
Профиль формата : Layer 3
Продолжительность : 6 м. 5 с.
Вид битрейта : Постоянный
Битрейт : 320 Кбит/сек
Каналы : 2 канала
Частота : 44,1 КГц
Метод сжатия : С потерями
Размер потока : 13,9 Мбайт (100%)
Библиотека кодирования : LAME3.97b
Настройки программы : -m s -V 4 -q 0 -lowpass 20.5
Общее
Полное имя : D:\MEDIA\Audio\Budgie\2006-You're All Living In Cuckooland\04-Falling.mp3
Формат : MPEG Audio
Размер файла : 12,3 Мбайт
Продолжительность : 5 м. 22 с.
Режим общего битрейта : Постоянный
Общий поток : 320 Кбит/сек
Альбом : You're All Living In Cuckoolan
Трек : Falling
Трек/Положение : 4
Исполнитель : Budgie
Жанр : Hard Rock
Дата записи : 2006
Библиотека кодирования : LAME3.97b
Примечание : Exact Audio Copy
Аудио
Формат : MPEG Audio
Версия формата : Version 1
Профиль формата : Layer 3
Продолжительность : 5 м. 22 с.
Вид битрейта : Постоянный
Битрейт : 320 Кбит/сек
Каналы : 2 канала
Частота : 44,1 КГц
Метод сжатия : С потерями
Размер потока : 12,3 Мбайт (100%)
Библиотека кодирования : LAME3.97b
Настройки программы : -m s -V 4 -q 0 -lowpass 20.5
Общее
Полное имя : D:\MEDIA\Audio\Budgie\2006-You're All Living In Cuckooland\05-Love Is Enough.mp3
Формат : MPEG Audio
Размер файла : 5,55 Мбайт
Продолжительность : 2 м. 25 с.
Режим общего битрейта : Постоянный
Общий поток : 320 Кбит/сек
Альбом : You're All Living In Cuckoolan
Трек : Love Is Enough
Трек/Положение : 5
Исполнитель : Budgie
Жанр : Hard Rock
Дата записи : 2006
Библиотека кодирования : LAME3.97b
Примечание : Exact Audio Copy
Аудио
Формат : MPEG Audio
Версия формата : Version 1
Профиль формата : Layer 3
Продолжительность : 2 м. 25 с.
Вид битрейта : Постоянный
Битрейт : 320 Кбит/сек
Каналы : 2 канала
Частота : 44,1 КГц
Метод сжатия : С потерями
Размер потока : 5,55 Мбайт (100%)
Библиотека кодирования : LAME3.97b
Настройки программы : -m s -V 4 -q 0 -lowpass 20.5
Общее
Полное имя : D:\MEDIA\Audio\Budgie\2006-You're All Living In Cuckooland\06-Tell Me Tell Me.mp3
Формат : MPEG Audio
Размер файла : 11,0 Мбайт
Продолжительность : 4 м. 47 с.
Режим общего битрейта : Постоянный
Общий поток : 320 Кбит/сек
Альбом : You're All Living In Cuckoolan
Трек : Tell Me Tell Me
Трек/Положение : 6
Исполнитель : Budgie
Жанр : Hard Rock
Дата записи : 2006
Библиотека кодирования : LAME3.97b
Примечание : Exact Audio Copy
Аудио
Формат : MPEG Audio
Версия формата : Version 1
Профиль формата : Layer 3
Продолжительность : 4 м. 47 с.
Вид битрейта : Постоянный
Битрейт : 320 Кбит/сек
Каналы : 2 канала
Частота : 44,1 КГц
Метод сжатия : С потерями
Размер потока : 11,0 Мбайт (100%)
Библиотека кодирования : LAME3.97b
Настройки программы : -m s -V 4 -q 0 -lowpass 20.5
Общее
Полное имя : D:\MEDIA\Audio\Budgie\2006-You're All Living In Cuckooland\07-(Don't Want To) Find That Girl.mp3
Формат : MPEG Audio
Размер файла : 14,8 Мбайт
Продолжительность : 6 м. 28 с.
Режим общего битрейта : Постоянный
Общий поток : 320 Кбит/сек
Альбом : You're All Living In Cuckoolan
Трек : (Don't Want To) Find That Girl
Трек/Положение : 7
Исполнитель : Budgie
Жанр : Hard Rock
Дата записи : 2006
Библиотека кодирования : LAME3.97b
Примечание : Exact Audio Copy
Аудио
Формат : MPEG Audio
Версия формата : Version 1
Профиль формата : Layer 3
Продолжительность : 6 м. 28 с.
Вид битрейта : Постоянный
Битрейт : 320 Кбит/сек
Каналы : 2 канала
Частота : 44,1 КГц
Метод сжатия : С потерями
Размер потока : 14,8 Мбайт (100%)
Библиотека кодирования : LAME3.97b
Настройки программы : -m s -V 4 -q 0 -lowpass 20.5
Общее
Полное имя : D:\MEDIA\Audio\Budgie\2006-You're All Living In Cuckooland\08-Captain.mp3
Формат : MPEG Audio
Размер файла : 8,52 Мбайт
Продолжительность : 3 м. 43 с.
Режим общего битрейта : Постоянный
Общий поток : 320 Кбит/сек
Альбом : You're All Living In Cuckoolan
Трек : Captain
Трек/Положение : 8
Исполнитель : Budgie
Жанр : Hard Rock
Дата записи : 2006
Библиотека кодирования : LAME3.97b
Примечание : Exact Audio Copy
Аудио
Формат : MPEG Audio
Версия формата : Version 1
Профиль формата : Layer 3
Продолжительность : 3 м. 43 с.
Вид битрейта : Постоянный
Битрейт : 320 Кбит/сек
Каналы : 2 канала
Частота : 44,1 КГц
Метод сжатия : С потерями
Размер потока : 8,52 Мбайт (100%)
Библиотека кодирования : LAME3.97b
Настройки программы : -m s -V 4 -q 0 -lowpass 20.5
Общее
Полное имя : D:\MEDIA\Audio\Budgie\2006-You're All Living In Cuckooland\09-I Don't Want To Throw You.mp3
Формат : MPEG Audio
Размер файла : 12,6 Мбайт
Продолжительность : 5 м. 31 с.
Режим общего битрейта : Постоянный
Общий поток : 320 Кбит/сек
Альбом : You're All Living In Cuckoolan
Трек : I Don't Want To Throw You
Трек/Положение : 9
Исполнитель : Budgie
Жанр : Hard Rock
Дата записи : 2006
Библиотека кодирования : LAME3.97b
Примечание : Exact Audio Copy
Аудио
Формат : MPEG Audio
Версия формата : Version 1
Профиль формата : Layer 3
Продолжительность : 5 м. 31 с.
Вид битрейта : Постоянный
Битрейт : 320 Кбит/сек
Каналы : 2 канала
Частота : 44,1 КГц
Метод сжатия : С потерями
Размер потока : 12,6 Мбайт (100%)
Библиотека кодирования : LAME3.97b
Настройки программы : -m s -V 4 -q 0 -lowpass 20.5
Общее
Полное имя : D:\MEDIA\Audio\Budgie\2006-You're All Living In Cuckooland\10-I'm Compressing The Comb On A.mp3
Формат : MPEG Audio
Размер файла : 19,0 Мбайт
Продолжительность : 8 м. 17 с.
Режим общего битрейта : Постоянный
Общий поток : 320 Кбит/сек
Альбом : You're All Living In Cuckoolan
Трек : I'm Compressing The Comb On A
Трек/Положение : 10
Исполнитель : Budgie
Жанр : Hard Rock
Дата записи : 2006
Библиотека кодирования : LAME3.97b
Примечание : Exact Audio Copy
Аудио
Формат : MPEG Audio
Версия формата : Version 1
Профиль формата : Layer 3
Продолжительность : 8 м. 18 с.
Вид битрейта : Постоянный
Битрейт : 320 Кбит/сек
Каналы : 2 канала
Частота : 44,1 КГц
Метод сжатия : С потерями
Размер потока : 19,0 Мбайт (100%)
Библиотека кодирования : LAME3.97b
Настройки программы : -m s -V 4 -q 0 -lowpass 20.5

Спектрограммы

     

Дополнительная информация

БАДЖИ (Budgie), английская хард-рок-группа. Одна из наиболее оригинально мысливших групп британского хард-рока 1970-х годов.
BUDGIE были представителями эндемической музыкальной сцены Южного Уэльса. Их песни отличал редкий в тяжелом роке мелодизм, темы песен нередко эпатировали причудливой игрой фантазии, вокал был подкупающе эмоционален, а инструментарий — тактичен и полон энергии. Тем не менее, BUDGIE так и не сумели преодолеть барьер, отделяющий культовый статус от Высшей лиги рок-н-ролла.
BUDGIE организовали в ноябре 1967 уроженцы Кардиффа и ветераны местной рок-блюзовой сцены Берк Шелли (Burke Shelley; бас, вокал) и Рей Филлипс (Ray Phillips; барабаны). К следующей весне состав дополнил Тони Бурдж (Tony Bourge; гитара, вокал). С тех пор формула звучания группы (не принимая во внимание смены состава) практически не менялась.
Три с лишним года BUDGIE без устали и особых надежд колесили по округе, совершая редкие вылазки за пределы Уэльса и добились признания не только у завсегдатаев пивных и рабочих клубов, но и у чуть более взыскательной аудитории местных колледжей и университета. Лишь в 1971, на волне общего интереса к тяжелому року, их законтрактовала фирма MCA, которая в том же году издала одноименный дебютный альбом BUDGIE и сингл Crash Course In Brain Surgery/Nude Disintegrating Parachutist.
На протяжении 1972-1973 они выпустили еще два альбома (Squawk и Never Turn Your Back On A Friend) плюс сингл Whiskey River/Guts, которые пользовались спросом разве что на исторической родине группы; более широкую публику музыканты, редко попадавшие в колонки новостей или на экраны ТВ, привлечь не могли. Накануне записи четвертого альбома, потеряв терпение, BUDGIE покинул Рей Филлипс. Его место занял барабанщик из Мидлэнда Пит Бут (Pete Boot). Он дебютировал на «сорокапятке» Zoom Club/Wondering What Everyone Knows. Вскоре после этого BUDGIE, наконец, проторили себе дорогу в альбомный раздел британских чартов диском In For The Kill, поднявшегося до 29-й строки. Не пришедшийся ко двору «чужеземец» Бут вскоре ушел; в этот раз вакансию занял их земляк-валлиец Стив Уильямс (Steve Williams) из кардиффской группы THE SAND. Пятый альбом Bandolier поднялся до 36-й отметки и заслужил несколько теплых слов в Sounds. Тем не менее, отношения BUDGIE с MCA, жаждавшей протолкнуть их на американский рынок, складывались не лучшим образом, поэтому в 1976, завершив отношения выпуском сингла I Ain"t No Mountain/Honey и обычного сборника лучших песен, группа заключила новый контракт с A AND M.
Первой работой нового альянса стал диск со странным названием If I Were Brittania I"d Waive The Rules и не менее причудливой обложкой, которую украшали странные космонавты—птицелюди. (Следует отметить, что по части украшения своих обложек BUDGIE с самого начала были едва ли не «впереди планеты всей», то позируя на фото в форме пилотов Люфтваффе или офицеров гестапо, то используя в оформлении образы из мифологии инков, Древнего Египта или научной фантастики.) В 1977 BUDGIE покинул ветеран-гитарист Бурдж. (Он вернулся в Кардифф, а позднее в том же году организовал группу TREDEGAR, в которой сидел за барабанами его старый партнер Рей Филлипс). По приглашению Берка в BUDGIE появился «Большой» Джон Томас (Big John Thomas), гитарист и певец из американской хардовой группы Джорджа Хатчера, двумя годами раньше перебравшейся на жительство в Британию. По настоянию A AND M, BUDGIE отправились в длительное турне по Северной Америке, но добились успеха только в Канаде (возможно, из-за некоторого сходства с RUSH).
После двух лет непрерывных разьездов, они, наконец, вернулись в студию и сделали второй (и последний) альбом для A AND M Impeckable, а также «сорокапятку» Smile Boy Smile/All At Sea, после чего бесследно исчезли на полтора года и объявились только в конце 1979, подписав контракт с филиалом RCA Action, который выпустил пару синглов и мини-альбом BUDGIE, подтвердивший в глазах редакторов компании кредитоспособность группы — вследствие чего начиная с Power Supply их альбомы выходили под маркой родительской фирмы. Новая «тяжелая революция» начала 80-х годов не могла не затронуть BUDGIE: многие из новых подростковых кумиров ссылались на них как на источник влияния и вдохновения, что стимулировало всплеск внимания как к старым, так и к новым работам группы. Cube, которая владела правами на их ранние записи, издала в 1981 свою версию The Best Of Budgie; Nightflight, очередной альбом на RCA, был с воодушевлением встречен и слушателями, и прессой, а появление BUDGIE на сцене очередного фестиваля в Реддинге в августе 1981 стало знаком признания их заслуг современной аудиторией.
Время раздачи: С 08:00 до 24:00
Other forum [Profile] [PM]

Dracula

Longevity: 6 years 11 months

Posts: 11348

Торрент-статистика

Post 10-Jun-2013 05:40 (after 2 hours 49 minutes)

Топик был перенесен из форума Rock в форум Rock


p2000s
 
Display posts from previous:    
Reply to topic

The time now is: Today 15:12

All times are GMT + 3 Hours



You cannot post new topics in this forum
You cannot reply to topics in this forum
You cannot edit your posts in this forum
You cannot delete your posts in this forum
You cannot vote in polls in this forum
You cannot attach files in this forum
You cannot download files in this forum