Today is a free download without charge Download

Игры разума / A Beautiful Mind (Рон Ховард / Ron Howard) [2001 г., Драма, Биография, BDRemux 1080p] DUB + 3х MVO + AVO + Original Eng + Commentary rus/eng + Sub Rus, Eng

Reply to topic
 
Author
Message

Omen ®

Longevity: 8 years 5 months

Posts: 181087

Торрент-статистика

Post 10-Jun-2013 00:41

[Quote]

Игры разума / A Beautiful Mind-Год выпуска: 2001
Страна: США
Жанр: Драма, Биография
Продолжительность: 02:15:30
Перевод 1: Профессиональный (Дубляж) - R5 (Universal Pictures Rus)
Перевод 2: Профессиональный Авторский (одноголосый закадровый) - Сербин
Перевод 3: Профессиональный (многоголосый, закадровый) - Премьер Мультимедиа
Перевод 4: Профессиональный (многоголосый, закадровый) - Карусель
Перевод 5: Профессиональный (многоголосый, закадровый) - Extrabit
Субтитры: Русские, Английские
Сценарий: Акива Голдсман, Сильвия Назар
Режиссер: Рон Ховард
Слоган: ««If reality has ganged up on you, nothing is safe anymore...»
В ролях: Рассел Кроу, Эд Харрис, Дженнифер Коннелли, Кристофер Пламмер, Пол Беттани, Адам Голдберг, Джош Лукас, Энтони Рэпп, Джейсон Грей-Стенфорд, Джудд Хирш-Описание: От всемирной известности до греховных глубин — все это познал на своей шкуре Джон Форбс Нэш-младший. Математический гений, он на заре своей карьеры сделал титаническую работу в области теории игр, которая практически перевернула этот раздел математики и практически принесла ему международную известность. Однако буквально в то же время заносчивый и пользующийся успехом у женщин Нэш получает удар, который переворачивает уже его собственную жизнь — врачи ставят ему диагноз «параноидная шизофрения». Лишь после долгих лет борьбы ему удается победить свой недуг и наконец получить заслуженную Нобелевскую премию.…
-Тип релиза: BDRemux 1080р (Исходник: A Beautiful Mind 2001 1080p EUR Blu-ray AVC DTS-HD MA 5.1)
Контейнер: MKV Sample
Видео: H.264, 23.976 fps, 1920x1080р (OAR 1.85), 34415 kbps
Звук #1: Русский AC3 5.1, 48 KHz, 16 bit, 384 kbps |R5 (Universal Pictures Rus)|
Звук #2: Русский DTS-HD Master Audio 5.1, 48 KHz, 24 bit, 3958 kbps, Lossless (DTS Core: 5.1, 48 KHz, 24bit, 1536 kbps) |Юрий Сербин|
Звук #3: Русский DTS-HD High-Res Audio 5.1, 48 KHz, 24 bit, 2046 kbps, Lossless (DTS Core: 5.1, 48 KHz, 24bit, 1536 kbps) |Премьер Мультимедиа|
Звук #4: Русский AC3 5.1, 48 KHz, 16 bit, 640 kbps |Карусель|
Звук #5: Английский (Оригинал) DTS-HD Master Audio 5.1, 48 KHz, 24 bit, 4096 kbps, Lossless (DTS Core: 5.1, 48 KHz, 24bit, 1536 kbps)
Звук #6: Русский (многоголосый, закадровый) (Комментарии) АС3 2.0, 48 KHz, 192 Кбит/с (Коментарии Рона Ховарда)
Звук #7: Русский (многоголосый, закадровый) (Комментарии) АС3 2.0, 48 KHz, 192 Кбит/с (Коментарии Акивы Голдсмана)
Звук #8: Английский (Оригинал) DTS-HD Master Audio 5.1, 48 KHz, 24 bit, 4096 kbps, Lossless (DTS Core: 5.1, 48 KHz, 24bit, 1536 kbps)
Звук #9: Английский (Комментарии) АС3 2.0, 48 KHz, 192 Кбит/с (Коментарии Рона Ховарда)
Звук #10: Английский (Комментарии) АС3 2.0, 48 KHz, 192 Кбит/с (Коментарии Акивы Голдсмана)
Субтитры: Русские (Надписи), Русские (Авторские - zaxxy), Русский (С DVD-R5), Русские (на комментарии Рона Говарда), Русские (на комментарии Акива Голдсмана), Английские (Надписи), Английские, Английские (SDH), Английские (на комментарии Рона Говарда), Английские (на комментарии Акива Голдсмана)
Формат субтитров: softsub (SRT)
Главы: 20, подписаны как в меню Blu-ray

Mediainfo

Format : Matroska
Format version : Version 4 / Version 2
File size : 44.3 GiB
Duration : 2h 15mn
Overall bit rate mode : Variable
Overall bit rate : 46.8 Mbps
Movie name : A.Beautiful.Mind.2001.1080p.BDRemux.AngeL/Angel9
Encoded date : UTC 2013-05-22 14:16:42
Writing application : mkvmerge v6.2.0 ('Promised Land') built on Apr 28 2013 12:22:01
Writing library : libebml v1.3.0 + libmatroska v1.4.0
Attachment : Yes
Video
ID : 1
Format : AVC
Format/Info : Advanced Video Codec
Format profile : [email protected]
Format settings, CABAC : Yes
Format settings, ReFrames : 4 frames
Codec ID : V_MPEG4/ISO/AVC
Duration : 2h 15mn
Bit rate mode : Variable
Maximum bit rate : 36.5 Mbps
Width : 1 920 pixels
Height : 1 080 pixels
Display aspect ratio : 16:9
Frame rate mode : Constant
Frame rate : 23.976 fps
Color space : YUV
Chroma subsampling : 4:2:0
Bit depth : 8 bits
Scan type : Progressive
Title : EUR Blu-ray AVC 34415 kbps
Default : Yes
Forced : No
Audio #1
ID : 2
Format : AC-3
Format/Info : Audio Coding 3
Mode extension : CM (complete main)
Format settings, Endianness : Big
Codec ID : A_AC3
Duration : 2h 15mn
Bit rate mode : Constant
Bit rate : 384 Kbps
Channel(s) : 6 channels
Channel positions : Front: L C R, Side: L R, LFE
Sampling rate : 48.0 KHz
Bit depth : 16 bits
Compression mode : Lossy
Stream size : 372 MiB (1%)
Title : DUB R5 (Universal Pictures Rus) AC3 5.1 @ 384 kbps
Language : Russian
Default : Yes
Forced : No
Audio #2
ID : 3
Format : DTS
Format/Info : Digital Theater Systems
Format profile : MA / Core
Mode : 16
Format settings, Endianness : Big
Codec ID : A_DTS
Duration : 2h 15mn
Bit rate mode : Variable
Bit rate : Unknown / 1 509 Kbps
Channel(s) : 6 channels
Channel positions : Front: L C R, Side: L R, LFE
Sampling rate : 48.0 KHz
Bit depth : 24 bits
Compression mode : Lossless / Lossy
Title : Serbin (AVO) DTS-HDMA 5.1 @ 3958 kbps / 24-bit (DTS Core: 5.1 / 48 kHz / 1509 kbps / 24-bit)
Language : Russian
Default : No
Forced : No
Audio #3
ID : 4
Format : DTS
Format/Info : Digital Theater Systems
Format profile : HRA / Core
Mode : 16
Format settings, Endianness : Big
Codec ID : A_DTS
Duration : 2h 15mn
Bit rate mode : Constant
Bit rate : 2 046 Kbps / 1 509 Kbps
Channel(s) : 6 channels
Channel positions : Front: L C R, Side: L R, LFE
Sampling rate : 48.0 KHz
Bit depth : 24 bits
Compression mode : Lossy
Stream size : 1.94 GiB (4%)
Title : Premier multimedia (MVO) DTS-HR 5.1 @ 2046.00 kbps (DTS Core: 5.1 / 48 kHz / 1509 kbps / 24-bit)
Language : Russian
Default : No
Forced : No
Audio #4
ID : 5
Format : AC-3
Format/Info : Audio Coding 3
Mode extension : CM (complete main)
Format settings, Endianness : Big
Codec ID : A_AC3
Duration : 2h 15mn
Bit rate mode : Constant
Bit rate : 640 Kbps
Channel(s) : 6 channels
Channel positions : Front: L C R, Side: L R, LFE
Sampling rate : 48.0 KHz
Bit depth : 16 bits
Compression mode : Lossy
Stream size : 620 MiB (1%)
Title : Karusel (MVO) AC3 5.1 @ 640 kbps
Language : Russian
Default : No
Forced : No
Audio #5
ID : 6
Format : AC-3
Format/Info : Audio Coding 3
Mode extension : CM (complete main)
Format settings, Endianness : Big
Codec ID : A_AC3
Duration : 2h 15mn
Bit rate mode : Constant
Bit rate : 640 Kbps
Channel(s) : 6 channels
Channel positions : Front: L C R, Side: L R, LFE
Sampling rate : 48.0 KHz
Bit depth : 16 bits
Compression mode : Lossy
Stream size : 620 MiB (1%)
Title : Extrabit (MVO) AC3 5.1 @ 640 kbps
Language : Russian
Default : No
Forced : No
Audio #6
ID : 7
Format : AC-3
Format/Info : Audio Coding 3
Mode extension : CM (complete main)
Format settings, Endianness : Big
Codec ID : A_AC3
Duration : 2h 15mn
Bit rate mode : Constant
Bit rate : 192 Kbps
Channel(s) : 2 channels
Channel positions : Front: L R
Sampling rate : 48.0 KHz
Bit depth : 16 bits
Compression mode : Lossy
Stream size : 186 MiB (0%)
Title : Commentary Ron Howard AC3 2.0 @ 192 kbps
Language : Russian
Default : No
Forced : No
Audio #7
ID : 8
Format : AC-3
Format/Info : Audio Coding 3
Mode extension : CM (complete main)
Format settings, Endianness : Big
Codec ID : A_AC3
Duration : 2h 15mn
Bit rate mode : Constant
Bit rate : 192 Kbps
Channel(s) : 2 channels
Channel positions : Front: L R
Sampling rate : 48.0 KHz
Bit depth : 16 bits
Compression mode : Lossy
Stream size : 186 MiB (0%)
Title : Commentary Akiva Goldsman AC3 2.0 @ 192 kbps
Language : Russian
Default : No
Forced : No
Audio #8
ID : 9
Format : DTS
Format/Info : Digital Theater Systems
Format profile : MA / Core
Mode : 16
Format settings, Endianness : Big
Codec ID : A_DTS
Duration : 2h 15mn
Bit rate mode : Variable
Bit rate : Unknown / 1 509 Kbps
Channel(s) : 6 channels
Channel positions : Front: L C R, Side: L R, LFE
Sampling rate : 48.0 KHz
Bit depth : 24 bits
Compression mode : Lossless / Lossy
Title : Eng DTS-HDMA 5.1 @ 4093 kbps / 24-bit (DTS Core: 5.1 / 48 kHz / 1509 kbps / 24-bit)
Language : English
Default : No
Forced : No
Audio #9
ID : 10
Format : AC-3
Format/Info : Audio Coding 3
Mode extension : CM (complete main)
Format settings, Endianness : Big
Codec ID : A_AC3
Duration : 2h 15mn
Bit rate mode : Constant
Bit rate : 192 Kbps
Channel(s) : 2 channels
Channel positions : Front: L R
Sampling rate : 48.0 KHz
Bit depth : 16 bits
Compression mode : Lossy
Stream size : 186 MiB (0%)
Title : Commentary Ron Howard AC3 2.0 @ 192 kbps
Language : English
Default : No
Forced : No
Audio #10
ID : 11
Format : AC-3
Format/Info : Audio Coding 3
Mode extension : CM (complete main)
Format settings, Endianness : Big
Codec ID : A_AC3
Duration : 2h 15mn
Bit rate mode : Constant
Bit rate : 192 Kbps
Channel(s) : 2 channels
Channel positions : Front: L R
Sampling rate : 48.0 KHz
Bit depth : 16 bits
Compression mode : Lossy
Stream size : 186 MiB (0%)
Title : Commentary Akiva Goldsman AC3 2.0 @ 192 kbps
Language : English
Default : No
Forced : No
Text #1
ID : 12
Format : UTF-8
Codec ID : S_TEXT/UTF8
Codec ID/Info : UTF-8 Plain Text
Title : forced
Language : Russian
Default : Yes
Forced : No
Text #2
ID : 13
Format : UTF-8
Codec ID : S_TEXT/UTF8
Codec ID/Info : UTF-8 Plain Text
Title : Full-R5
Language : Russian
Default : No
Forced : No
Text #3
ID : 14
Format : UTF-8
Codec ID : S_TEXT/UTF8
Codec ID/Info : UTF-8 Plain Text
Title : Full-zaxxy
Language : Russian
Default : No
Forced : No
Text #4
ID : 15
Format : UTF-8
Codec ID : S_TEXT/UTF8
Codec ID/Info : UTF-8 Plain Text
Title : Commentary Ron Howard
Language : Russian
Default : No
Forced : No
Text #5
ID : 16
Format : UTF-8
Codec ID : S_TEXT/UTF8
Codec ID/Info : UTF-8 Plain Text
Title : Commentary Akiva Goldsman
Language : Russian
Default : No
Forced : No
Text #6
ID : 17
Format : UTF-8
Codec ID : S_TEXT/UTF8
Codec ID/Info : UTF-8 Plain Text
Title : forced
Language : English
Default : No
Forced : No
Text #7
ID : 18
Format : UTF-8
Codec ID : S_TEXT/UTF8
Codec ID/Info : UTF-8 Plain Text
Title : Full
Language : English
Default : No
Forced : No
Text #8
ID : 19
Format : UTF-8
Codec ID : S_TEXT/UTF8
Codec ID/Info : UTF-8 Plain Text
Title : Full-SDH
Language : English
Default : No
Forced : No
Text #9
ID : 20
Format : UTF-8
Codec ID : S_TEXT/UTF8
Codec ID/Info : UTF-8 Plain Text
Title : Commentary Ron Howard
Language : English
Default : No
Forced : No
Text #10
ID : 21
Format : UTF-8
Codec ID : S_TEXT/UTF8
Codec ID/Info : UTF-8 Plain Text
Title : Commentary Akiva Goldsman
Language : English
Default : No
Forced : No
Menu
00:00:00.000 : en:Main Titles
00:01:24.835 : en:Mathematicians
00:09:02.292 : en:A Challenge
00:11:25.935 : en:The Need to Focus
00:19:01.015 : en:Governing Dynamics
00:24:51.240 : en:The Pentagon
00:30:07.639 : en:Teacher and Student
00:32:20.063 : en:Code Breaker
00:37:39.841 : en:Alicia
00:48:59.687 : en:The Prodigal Roommate
00:51:32.006 : en:A Wedding
00:54:52.998 : en:Trouble
01:02:42.884 : en:Dr. Rosen
01:09:22.867 : en:Mental Illness
01:18:10.436 : en:Treatment
01:30:04.024 : en:Delusions
01:45:39.875 : en:Princeton
01:51:26.555 : en:Goodbye, Old Friends
02:00:09.327 : en:A Nobel Prize
02:08:41.297 : en:End Titles

Скриншоты

US Blu-ray VC-1 (старый) 28570 kbps vs EUR Blu-ray AVC 34415 kbps



Цитата:
  • Видеоряд в ремуксе из нового исходника, который ощутимо лучше предыдущего (см. сравнения)
  • Дороги №2, №3, №4 были взяты с HDclub (релиз со старого BluRay), ровно они не лягли на этот видеоряд, по этому подогнаны без повтороного перекодирования.
  • За укладку голосов на клубовские дороги спасибо sergey_n, за выделение чистого голоса премьеровской дороги, спасибо - lostrator-у.
  • Очень лаконично о дорогах:
    Дубляж с DVD, все остальные дороги с переводами с чистого голоса, кроме комментариев. Имхо, с головой из переводов хватит - дубляж и Сербин. Ввиду, этого, карусель (Голоса с клуба) и Extrabit (выделял голоса ещё два года назад) делать lossless лишено всякого смысла, т.к. точность перевода низкая и за 48 мбит заходить не хотелось.
  • Перевод Юрия Сербина осуществлен в рамках народного проекта форума е180. Большое спасибо ivanco75, JI79, Bilko, Alex, uchitel538, zeleniy, dir, d-i-mm, carnivale, oleg-k, Эдуард, Serene. Перевод как всегда выполнен на отлично.
  • За ДВД с неплохо переведенными комментариями респект Loki1982
  • Присутствуют авторские субтитры пользователя zaxxy
Other forum [Profile] [PM]
Display posts from previous:    
Reply to topic

The time now is: Today 12:01

All times are GMT + 3 Hours



You cannot post new topics in this forum
You cannot reply to topics in this forum
You cannot edit your posts in this forum
You cannot delete your posts in this forum
You cannot vote in polls in this forum
You cannot attach files in this forum
You cannot download files in this forum