Today is a free download without charge Download

Дядя Сэм / Uncle Sam (Уильям Ластиг / William Lustig) [1080p] [1997 г., ужасы, комедия, BDRip] AVO

Reply to topic
 
Author
Message

Omen ®

Longevity: 8 years 5 months

Posts: 181087

Торрент-статистика

Post 10-Jun-2013 00:41

[Quote]

Дядя Сэм / Uncle Sam
Год выпуска: 1997
Страна: США
Жанр: ужасы, комедия
Продолжительность: 01:29:18
Перевод: Авторский (одноголосый) Дольский
Русские субтитры: нет
Режиссер: Уильям Ластиг / William Lustig
В ролях: Уильям Смит, Дэвид «Шарк» Фралик, Кристофер Огден, Лесли Нил, Бо Хопкинс, Мэттью Флинт, Энн Тремко, Айзек Хейз, Тимоти Боттомс, Тим Грим
Описание: Когда гроб с телом погибшего во время операции «Буря в пустыне» солдата Сэма Харпера доставляют в родной город, никто из земляков не выражает особой скорби, кроме племянника, девятилетнего Джоди, боготворившего своего дядю Сэма как героя. Любовь делает свое дело. В День Независимости труп героя оживает, и безжалостно мстит всем, кто ведет себя непатриотично…
Доп. информация:
Качество: BDRip (Uncle.Sam.1997.1080p.BluRay.x264-aAF)
Формат: MKV
Видео: MPEG4 Video (H264) 1920x816 23.98fps ~ 9002 Kbps
Аудио: [RUS] 48 kHz, AC3 Dolby Digital, 2/0 (L,R) ch, ~192 kbps
Аудио: [ENG] 48 kHz, DTS, 2/0 (L,R) ch, ~1510.00 kbps avg

MI

General
Complete name : J:\Uncle.Sam.1997.1080p.BluRay.x264.mkv
Format : Matroska
File size : 6.68 GiB
Duration : 1h 29mn
Overall bit rate : 10.7 Mbps
Movie name : Uncle.Sam.1997.1080p.BluRay.x264-aAF
Encoded date : UTC 2010-10-16 14:07:37
Writing application : mkvmerge v3.2.0 ('Beginnings') built on Feb 12 2010 16:46:17
Writing library : libebml v0.7.9 + libmatroska v0.8.1
Video
ID : 1
Format : AVC
Format/Info : Advanced Video Codec
Format profile : [email protected]
Format settings, CABAC : Yes
Format settings, ReFrames : 5 frames
Muxing mode : Container [email protected]
Codec ID : V_MPEG4/ISO/AVC
Duration : 1h 29mn
Bit rate : 8 789 Kbps
Nominal bit rate : 9 002 Kbps
Width : 1 920 pixels
Height : 816 pixels
Display aspect ratio : 2.35:1
Frame rate : 23.976 fps
Resolution : 8 bits
Colorimetry : 4:2:0
Scan type : Progressive
Bits/(Pixel*Frame) : 0.234
Stream size : 5.48 GiB (82%)
Writing library : x264 core 105 r1732 2b04482
Encoding settings : cabac=1 / ref=5 / deblock=1:0:0 / analyse=0x3:0x133 / me=umh / subme=8 / psy=1 / psy_rd=1.00:0.00 / mixed_ref=1 / me_range=16 / chroma_me=1 / trellis=1 / 8x8dct=1 / cqm=0 / deadzone=21,11 / fast_pskip=0 / chroma_qp_offset=-2 / threads=12 / sliced_threads=0 / nr=0 / decimate=1 / interlaced=0 / constrained_intra=0 / bframes=3 / b_pyramid=2 / b_adapt=1 / b_bias=0 / direct=1 / weightb=1 / open_gop=0 / weightp=2 / keyint=240 / keyint_min=24 / scenecut=40 / intra_refresh=0 / rc_lookahead=40 / rc=2pass / mbtree=1 / bitrate=9002 / ratetol=1.0 / qcomp=0.60 / qpmin=10 / qpmax=51 / qpstep=4 / cplxblur=20.0 / qblur=0.5 / ip_ratio=1.40 / aq=1:1.00
Language : English
Audio #1
ID : 2
Format : AC-3
Format/Info : Audio Coding 3
Codec ID : A_AC3
Duration : 1h 29mn
Bit rate mode : Constant
Bit rate : 192 Kbps
Channel(s) : 2 channels
Channel positions : L R
Sampling rate : 48.0 KHz
Stream size : 123 MiB (2%)
Title : Андрей Дольский
Language : Russian
Audio #2
ID : 3
Format : DTS
Format/Info : Digital Theater Systems
Codec ID : A_DTS
Duration : 1h 29mn
Bit rate mode : Constant
Bit rate : 1 510 Kbps
Channel(s) : 6 channels
Channel positions : Front: L C R, Surround: L R, LFE
Sampling rate : 48.0 KHz
Resolution : 16 bits
Stream size : 964 MiB (14%)

Скриншоты

Other forum [Profile] [PM]
Display posts from previous:    
Reply to topic

The time now is: Today 05:40

All times are GMT + 3 Hours



You cannot post new topics in this forum
You cannot reply to topics in this forum
You cannot edit your posts in this forum
You cannot delete your posts in this forum
You cannot vote in polls in this forum
You cannot attach files in this forum
You cannot download files in this forum