Today is a free download without charge Download

Кандагарский прорыв: Крепость войны / Kandahar Break: Fortress Of War (Дэвид Уитни / David Whitney) [2009, Великобритания, триллер, мелодрама, военный, BDRip 720p] DVO + original (eng)

Reply to topic
 
Author
Message

Omen ®

Longevity: 8 years 5 months

Posts: 181087

Торрент-статистика

Post 10-Jun-2013 00:41

[Quote]

Кандагарский прорыв: Крепость войны / Kandahar Break: Fortress Of War
Страна: Великобритания
Студия: Millhouse Films
Жанр: триллер, мелодрама, военный
Год выпуска: 2009
Продолжительность: 01:34:24
Перевод: Профессиональный (двухголосый закадровый)
Субтитры: нет
Оригинальная аудиодорожка: Английский
Режиссер: Дэвид Уитни / David Whitney
В ролях: Шон Дули, Дин Эндрюс, Рашид Наз, Tatmain Ul Qulb, Хамид Шейх, Hidayat Saleem, Shista Khan, Мария Таир Кхан...
Описание: 1999 год. Британский инженер-сапёр, работающий на правительство Талибана в Афганистане, должен покинуть страну. Однако именно тогда его втягивают в смертельную игру, полную интриг и предательств.
Доп.информация: Фильм разбит на главы по 5 минут для удобства навигации.

5.4/10 (59 votes)

Русская дорожка из релиза групп:
Тип релиза: BDRip 720p, источник: Kandahar.Break.2009.720p.BluRay.x264-AVCHD
Контейнер: MKV
Видео: 1280x720 (16:9), 24.000 fps, H264 ~6170 kbps avg, 0.279 bit/pixel
Аудио : Русский 48 kHz, AC3, 2 ch, 192.00 kbps Constant
Аудио 2: Английский 48 kHz, AC3, 2 ch, 448.00 kbps Constant

MediaInfo

General
Complete name : Kandagarskij.proryv.Krepost.vojny.2009.P2.BDRip.720p.mkv
Format : Matroska
File size : 4.49 GiB
Duration : 1h 34mn
Overall bit rate : 6 810 Kbps
Movie name : avproh
Encoded date : UTC 2010-09-21 16:43:10
Writing application : mkvmerge v4.1.1 ('Bouncin' Back') сборка от Jul 3 2010 22:54:08
Writing library : libebml v1.0.0 + libmatroska v1.0.0
Video
ID : 1
Format : AVC
Format/Info : Advanced Video Codec
Format profile : [email protected]
Format settings, CABAC : Yes
Format settings, ReFrames : 5 frames
Muxing mode : Container [email protected]
Codec ID : V_MPEG4/ISO/AVC
Duration : 1h 34mn
Bit rate : 6 170 Kbps
Width : 1 280 pixels
Height : 720 pixels
Display aspect ratio : 16:9
Frame rate : 24.000 fps
Color space : YUV
Chroma subsampling : 4:2:0
Bit depth : 8 bits
Scan type : Progressive
Bits/(Pixel*Frame) : 0.279
Stream size : 3.98 GiB (89%)
Writing library : x264 core 104 r1698 c41b8f0
Encoding settings : cabac=1 / ref=5 / deblock=1:0:0 / analyse=0x3:0x133 / me=umh / subme=7 / psy=1 / psy_rd=1.00:0.00 / mixed_ref=1 / me_range=16 / chroma_me=1 / trellis=1 / 8x8dct=1 / cqm=0 / deadzone=21,11 / fast_pskip=0 / chroma_qp_offset=-2 / threads=12 / sliced_threads=0 / nr=0 / decimate=1 / interlaced=0 / constrained_intra=0 / bframes=3 / b_pyramid=2 / b_adapt=1 / b_bias=0 / direct=1 / weightb=1 / open_gop=0 / weightp=2 / keyint=250 / keyint_min=24 / scenecut=40 / intra_refresh=0 / rc_lookahead=40 / rc=2pass / mbtree=1 / bitrate=6170 / ratetol=1.0 / qcomp=0.60 / qpmin=10 / qpmax=51 / qpstep=4 / cplxblur=20.0 / qblur=0.5 / ip_ratio=1.40 / aq=1:1.00
Audio #1
ID : 2
Format : AC-3
Format/Info : Audio Coding 3
Mode extension : CM (complete main)
Codec ID : A_AC3
Duration : 1h 34mn
Bit rate mode : Constant
Bit rate : 192 Kbps
Channel(s) : 2 channels
Channel positions : Front: L R
Sampling rate : 48.0 KHz
Bit depth : 16 bits
Stream size : 130 MiB (3%)
Title : AC3 2.0 192 kbps
Language : Russian
Audio #2
ID : 3
Format : AC-3
Format/Info : Audio Coding 3
Mode extension : CM (complete main)
Codec ID : A_AC3
Duration : 1h 34mn
Bit rate mode : Constant
Bit rate : 448 Kbps
Channel(s) : 2 channels
Channel positions : Front: L R
Sampling rate : 48.0 KHz
Bit depth : 16 bits
Stream size : 303 MiB (7%)
Title : AC3 2.0 448 kbps
Menu #1
00:00:00.000 : ru:
Menu #2
00:05:00.000 : ru:
Menu #3
00:10:00.000 : ru:
Menu #4
00:15:00.000 : ru:
Menu #5
00:20:00.000 : ru:
Menu #6
00:25:00.000 : ru:
Menu #7
00:30:00.000 : ru:
Menu #8
00:35:00.000 : ru:
Menu #9
00:40:00.000 : ru:
Menu #10
00:45:00.000 : ru:
Menu #11
00:50:00.000 : ru:
Menu #12
00:55:00.000 : ru:
Menu #13
01:00:00.000 : ru:
Menu #14
01:05:00.000 : ru:
Menu #15
01:10:00.000 : ru:
Menu #16
01:15:00.000 : ru:
Menu #17
01:20:00.000 : ru:
Menu #18
01:25:00.000 : ru:
Menu #19
01:30:00.000 : ru:

Скриншоты

Other forum [Profile] [PM]
Display posts from previous:    
Reply to topic

The time now is: Today 10:19

All times are GMT + 3 Hours



You cannot post new topics in this forum
You cannot reply to topics in this forum
You cannot edit your posts in this forum
You cannot delete your posts in this forum
You cannot vote in polls in this forum
You cannot attach files in this forum
You cannot download files in this forum