Today is a free download without charge Download

Бестолковая защита / Witless Protection (Чарльз Карнер / Charles Robert Carner) [2008 г., комедия, криминал, BDRip 1080p] MVO (R5) + Original + sub

Reply to topic
 
Author
Message

Omen ®

Longevity: 8 years 5 months

Posts: 181087

Торрент-статистика

Post 10-Jun-2013 00:41

[Quote]

Бестолковая защита / Witless Protection-Год выпуска: 2008
Страна: США, Parallel Entertainment
Жанр: комедия, криминал
Продолжительность: 01:36:12
Перевод: Профессиональный (многоголосый, закадровый)
Русские субтитры: есть
Режиссер: Чарльз Карнер / Charles Robert Carner
В ролях: Ларри Кейбл Гай, Ричард Булл, Дж. Дэвид Мюллер, Дженни МакКарти, Яфет Котто, Ивана Милишевич, Дэн Уоллер,Ерик Робертс
Описание: Шериф маленького городка становится свидетелем похищения и спешит спасти женщину. Позже оказывается что «похитители» — агенты ФБР, нанятые для защиты женщины и сопровождения ее в Чикаго на громкий судебный процесс по делу о коррупции. Сами агенты, на самом деле, преступники и тоже «по уши в грязи», а потому хотят смерти свидетельницы.- | IMDB: 2.6/10 | |-Качество: BDRip (DNL)
Формат: MKV
Видео кодек: H.264
Аудио кодек: AC3, DTS
Видео: 1920 x 1080, 23.976 fps, [email protected], ~9497 Kbps
Аудио№1: Русский: AC3, 48 kHz, 3/2 (L,C,R,l,r) + LFE ch, ~448.00 kbps avg |Многоголосый|
Аудио№2: Английский: DTS, 48 kHz, 3/2 (L,C,R,l,r) + LFE ch, ~1510 kbps avg |Оригинал|
Субтитры: Russian, German, Dutch, English... (srt)

Скриншоты:


Mi

Код:
[size=12]Complete name : Beztolkovaja.zashita.2008.1080p.DNL.mkv
      Format : Matroska
      File size : 7.86 GiB
      Duration : 1h 36mn
      Overall bit rate : 11.7 Mbps
      Encoded date : UTC 2010-04-19 02:54:48
      Writing application : mkvmerge v2.4.0 ('Fumbling Towards Ecstasy') built on Oct 11 2008 20:13:15
      Writing library : libebml v0.7.7 + libmatroska v0.8.1
   Video #1
      ID : 1
      Format : AVC
      Format/Info : Advanced Video Codec
      Format profile : [email protected]
      Format settings, CABAC : Yes
      Format settings, ReFrames : 4 frames
      Muxing mode : Container [email protected]
      Codec ID : V_MPEG4/ISO/AVC
      Duration : 1h 36mn
      Bit rate : 9 497 Kbps
      Width : 1 920 pixels
      Height : 1 080 pixels
      Display aspect ratio : 16:9
      Frame rate : 23.976 fps
      Resolution : 8 bits
      Colorimetry : 4:2:0
      Scan type : Progressive
      Bits/(Pixel*Frame) : 0.191
      Stream size : 6.38 GiB (81%)
      Writing library : x264 core 88 r1471 1144615
      Encoding settings : cabac=1 / ref=4 / deblock=1:0:0 / analyse=0x3:0x133 / me=umh / subme=7 / psy=1 / psy_rd=1.00:0.00 / mixed_ref=1 / me_range=16 / chroma_me=1 / trellis=1 / 8x8dct=1 / cqm=0 / deadzone=21,11 / fast_pskip=0 / chroma_qp_offset=-2 / threads=6 / sliced_threads=0 / nr=0 / decimate=1 / mbaff=0 / constrained_intra=0 / bframes=3 / b_pyramid=2 / b_adapt=2 / b_bias=0 / direct=1 / wpredb=1 / wpredp=0 / keyint=250 / keyint_min=25 / scenecut=40 / intra_refresh=0 / rc_lookahead=40 / rc=crf / mbtree=1 / crf=20.0 / qcomp=0.60 / qpmin=10 / qpmax=51 / qpstep=4 / ip_ratio=1.40 / aq=1:1.00
      Language : German
   Audio #2
      ID : 2
      Format : AC-3
      Format/Info : Audio Coding 3
      Codec ID : A_AC3
      Duration : 1h 36mn
      Bit rate mode : Constant
      Bit rate : 448 Kbps
      Channel(s) : 6 channels
      Channel positions : Front: L C R, Surround: L R, LFE
      Sampling rate : 48.0 KHz
      Video delay : 2s 300ms
      Stream size : 308 MiB (4%)
      Title : 448
      Language : Russian
   Audio #3
      ID : 3
      Format : DTS
      Format/Info : Digital Theater Systems
      Codec ID : A_DTS
      Duration : 1h 36mn
      Bit rate mode : Constant
      Bit rate : 1 510 Kbps
      Channel(s) : 6 channels
      Channel positions : Front: L C R, Surround: L R, LFE
      Sampling rate : 48.0 KHz
      Resolution : 24 bits
      Stream size : 1.01 GiB (13%)
      Title : 1536
      Language : English
   Text #4
      ID : 4
      Format : UTF-8
      Codec ID : S_TEXT/UTF8
      Codec ID/Info : UTF-8 Plain Text
      Language : Russian
   Text #5
      ID : 5
      Format : UTF-8
      Codec ID : S_TEXT/UTF8
      Codec ID/Info : UTF-8 Plain Text
      Language : German
   Text #6
      ID : 6
      Format : UTF-8
      Codec ID : S_TEXT/UTF8
      Codec ID/Info : UTF-8 Plain Text
      Language : Dutch
   Text #7
      ID : 7
      Format : UTF-8
      Codec ID : S_TEXT/UTF8
      Codec ID/Info : UTF-8 Plain Text
      Language : English
   Text #8
      ID : 8
      Format : UTF-8
      Codec ID : S_TEXT/UTF8
      Codec ID/Info : UTF-8 Plain Text
      Language : Portuguese
   Text #9
      ID : 9
      Format : UTF-8
      Codec ID : S_TEXT/UTF8
      Codec ID/Info : UTF-8 Plain Text
      Language : Slovenian
   Text #10
      ID : 10
      Format : UTF-8
      Codec ID : S_TEXT/UTF8
      Codec ID/Info : UTF-8 Plain Text
      Language : Spanish[/size]
Other forum [Profile] [PM]
Display posts from previous:    
Reply to topic

The time now is: Today 02:29

All times are GMT + 3 Hours



You cannot post new topics in this forum
You cannot reply to topics in this forum
You cannot edit your posts in this forum
You cannot delete your posts in this forum
You cannot vote in polls in this forum
You cannot attach files in this forum
You cannot download files in this forum