Today is a free download without charge Download

Стреляйте Герцога / Shoot the Duke (Стивен Мануэль / Stephen Manuel) [2009 г., боевик, триллер, комедия, BDRip 720p]

Reply to topic
 
Author
Message

Omen ®

Longevity: 8 years 5 months

Posts: 181087

Торрент-статистика

Post 10-Jun-2013 00:41

[Quote]

Стреляйте Герцога / Shoot the Duke
Rockinsky has to make sure the Duke survives for testimony – while everybody else is closing in… to shoot the duke!
Год выпуска: 2009
Страна: Германия
Жанр: боевик, триллер, комедия
Продолжительность: 01:16:50
Перевод: любительский (двухголосый)
Русские субтитры: нет
Режиссер: Стивен Мануэль (Stephen Manuel)
В ролях: Стивен Болдуин (Stephen Baldwin), Беттина Циммерманн (Bettina Zimmermann), Томас Хайнце (Thomas Heinze), Маттиас Дитрих (Matthias Dietrich), Костас Зоммер (Kostas Sommer), Джон Фридманн (John Friedmann), Аксель Ведекинд (Axel Wedekind), Санья Шихора (Sanjay Shihora), Вивиан Вихоф (Vivian Viehof), Нина Кристин (Nina Kristin)
Описание: Детектив Макс Рокински (Стивен Болдуин) попадает в ужасную передрягу, когда Джонатану Мардьюкасу по кличке Герцог (Санья Шихора), главному свидетелю против мафиозного босса Джо Бенузо, стреляют в голову незадолго до дачи показаний. Бенузо (Томас Хайнце) хочет убрать своего бывшего бухглатера, и его киллерам это почти удается, однако Герцог не погибает. Если Максу удастся сохранить ему жизнь, шансы сцапать Бенузо все-таки есть.
См. также официальный сайт фильма.
Качество: BDRip
Формат: MKV
Видео кодек: H.264
Аудио кодек: AC3
Видео: H.264/AVC, 1280x720, 16:9, 25.000 fps, 7 337 Kbps
Аудио 1: русский AC-3, 5 channels (Front: L C R, Side: L R), 48 KHz, 448 Kbps
Аудио 2: немецкий AC-3, 5 channels (Front: L C R, Side: L R), 48 KHz, 448 Kbps

Скриншоты

Сэмпл

00:01:50

MediaInfo

Код:
General
Complete name                    : Стреляйте Герцога (Shoot the Duke, 2009, BDRip 720p).mkv
Format                           : Matroska
File size                        : 4.51 GiB
Duration                         : 1h 16mn
Overall bit rate                 : 8 400 Kbps
Encoded date                     : UTC 2010-05-02 18:26:35
Writing application              : mkvmerge v2.9.7 ('Tenderness') built on Jul  1 2009 18:43:35
Writing library                  : libebml v0.7.7 + libmatroska v0.8.1
Video
ID                               : 1
Format                           : AVC
Format/Info                      : Advanced Video Codec
Format profile                   : [email protected]
Format settings, CABAC           : Yes
Format settings, ReFrames        : 5 frames
Muxing mode                      : Container [email protected]
Codec ID                         : V_MPEG4/ISO/AVC
Duration                         : 1h 16mn
Bit rate                         : 7 337 Kbps
Nominal bit rate                 : 7 502 Kbps
Width                            : 1 280 pixels
Height                           : 720 pixels
Display aspect ratio             : 16:9
Frame rate                       : 25.000 fps
Resolution                       : 8 bits
Colorimetry                      : 4:2:0
Scan type                        : Progressive
Bits/(Pixel*Frame)               : 0.318
Stream size                      : 3.94 GiB (87%)
Writing library                  : x264 core 80 r1376M 3feaec2
Encoding settings                : cabac=1 / ref=5 / deblock=1:0:0 / analyse=0x3:0x2 / me=umh / subme=6 / psy=1 / psy_rd=1.0:0.0 / mixed_ref=1 / me_range=16 / chroma_me=1 / trellis=1 / 8x8dct=1 / cqm=0 / deadzone=21,11 / fast_pskip=0 / chroma_qp_offset=-2 / threads=3 / sliced_threads=0 / nr=0 / decimate=1 / mbaff=0 / constrained_intra=0 / bframes=3 / b_pyramid=0 / b_adapt=1 / b_bias=0 / direct=3 / wpredb=1 / wpredp=2 / keyint=250 / keyint_min=25 / scenecut=0 / rc_lookahead=40 / rc=2pass / mbtree=1 / bitrate=7502 / ratetol=1.0 / qcomp=0.60 / qpmin=10 / qpmax=51 / qpstep=4 / cplxblur=20.0 / qblur=0.5 / ip_ratio=1.40 / aq=1:1.00
Audio #1
ID                               : 2
Format                           : AC-3
Format/Info                      : Audio Coding 3
Format_Settings_ModeExtension    : CM (complete main)
Codec ID                         : A_AC3
Duration                         : 1h 16mn
Bit rate mode                    : Constant
Bit rate                         : 448 Kbps
Channel(s)                       : 5 channels
Channel positions                : Front: L C R, Side: L R
Sampling rate                    : 48.0 KHz
Stream size                      : 246 MiB (5%)
Audio #2
ID                               : 3
Format                           : AC-3
Format/Info                      : Audio Coding 3
Format_Settings_ModeExtension    : CM (complete main)
Codec ID                         : A_AC3
Duration                         : 1h 16mn
Bit rate mode                    : Constant
Bit rate                         : 448 Kbps
Channel(s)                       : 5 channels
Channel positions                : Front: L C R, Side: L R
Sampling rate                    : 48.0 KHz
Stream size                      : 246 MiB (5%)

Ссылки на раздачи в другом качестве

Other forum [Profile] [PM]
Similar theme
Forum Topic Author Torrent Replies Last Post
./templates/default/images/folder_dl.gif Техническая и научно-популярная литература Е. В. Кулаков | Переносные стрелочные комбинированные приборы [2005] [DJVU] UndegraundMen
1 | 0

0 | 1325

4

2013-08-15 11:00
UndegraundMen Latest
./templates/default/images/folder_dl.gif Фантастика, фэнтези, ужасы, мистика Мария Стрелова | Метро 2033: Нас больше нет (2018) [FB2] }{@R0N
1 | 0

0 | 689

1

2018-08-05 12:54
}{@R0N Latest
./templates/default/images/folder_dl.gif Фантастика, фэнтези, ужасы, мистика Мария Стрелова | Метро 2033: Призраки прошлого (2019) [FB2] }{@R0N
1 | 0

0 | 873

0

2019-06-09 22:58
}{@R0N Latest
Display posts from previous:    
Reply to topic

The time now is: Today 02:48

All times are GMT + 3 Hours



You cannot post new topics in this forum
You cannot reply to topics in this forum
You cannot edit your posts in this forum
You cannot delete your posts in this forum
You cannot vote in polls in this forum
You cannot attach files in this forum
You cannot download files in this forum