Today is a free download without charge Download

Тусовщики / Swingers (Даг Лайман / Doug Liman) [1996 г., Комедия, BDRip, 1080p]

Reply to topic
 
Author
Message

Omen ®

Longevity: 8 years 5 months

Posts: 181087

Торрент-статистика

Post 10-Jun-2013 00:41

[Quote]

Тусовщики / Swingers
Год выпуска: 1996
Страна: США, Miramax
Жанр: Комедия
Продолжительность: 01:36:19
Перевод: Профессиональный (многоголосый, закадровый)
Русские субтитры: есть
Режиссер: Даг Лайман / Doug Liman
В ролях: Джон Фавро, Винс Вон, Жан Дикстра, Билл Филлипс, Рон Ливингстон, Патрик Ван Хорн, Хезер Грэм, Дина Мартин, Кэтрин Кендалл, Брук Лэнгтон, Блейк Линдсли, Стефани Иттелсон, Вернон Вон, Рио Хэкфорд, Мэдди Корман, Памела Шоу, Эшли М. Роджерс, Ахмед Ахмед, Томас Холл, Стив Дж. Термат
Описание: Майк переживает тяжелую утрату - вот уже полгода как его бросила подружка, с которой они прожили целых шесть лет. Друзья вовсю пытаются растормошить приятеля, таская его по всяким вечеринкам и казино, надеясь познакомить Майка с какой-нибудь девушкой. Однако ничего толкового из этого не выходит: Майкл продолжает хандрить, и с девушками у него ничего не получается - он продолжает ждать звонка своей любимой и единственной Мишель. Но жизнь не стоит на месте, и у Майка появляется новая подружка, но эти зарождающиеся чувства героям предстоит проверить, когда в квартире Майка раздается звонок от Мишель...
Релиз:
Качество: BDRip
Формат: MKV
Видео кодек: H.264
Аудио кодек: AC3
Видео: MPEG-4 AVC, 10.3 Mбит/с, 1920x1040, 23.976 кадр/с
Аудио: Русский (AC3, 2 ch, 128 Кбит/с), английский (DTS, 6 ch, 1536 Кбит/с) всё 48.0 KHz

Скриншоты

MI

Format : Matroska
File size : 8.03 GiB
Duration : 1h 36mn
Overall bit rate : 11.9 Mbps
Movie name : -=kinozal.tv-HD=-
Encoded date : UTC 2010-04-01 11:50:52
Writing application : mkvmerge v3.1.0 ('Happy up here') built on Jan 19 2010 12:09:24
Writing library : libebml v0.7.9 + libmatroska v0.8.1
Video
ID : 1
Format : AVC
Format/Info : Advanced Video Codec
Format profile : [email protected]
Format settings, CABAC : Yes
Format settings, ReFrames : 4 frames
Muxing mode : Container [email protected]
Codec ID : V_MPEG4/ISO/AVC
Duration : 1h 36mn
Bit rate : 10.1 Mbps
Nominal bit rate : 10.3 Mbps
Width : 1 920 pixels
Height : 1 040 pixels
Display aspect ratio : 16:9
Frame rate : 23.976 fps
Resolution : 24 bits
Colorimetry : 4:2:0
Scan type : Progressive
Bits/(Pixel*Frame) : 0.210
Stream size : 6.76 GiB (84%)
Writing library : x264 core 84 r1416kGIT fcf70c2
Encoding settings : cabac=1 / ref=4 / deblock=1:0:0 / analyse=0x3:0x133 / me=umh / subme=7 / psy=1 / psy_rd=1.0:0.0 / mixed_ref=1 / me_range=16 / chroma_me=1 / trellis=1 / 8x8dct=1 / cqm=0 / deadzone=21,11 / fast_pskip=1 / chroma_qp_offset=-2 / threads=12 / sliced_threads=0 / nr=0 / decimate=1 / mbaff=0 / constrained_intra=0 / bframes=3 / b_pyramid=0 / b_adapt=1 / b_bias=0 / direct=3 / wpredb=1 / wpredp=2 / keyint=250 / keyint_min=25 / scenecut=40 / intra_refresh=0 / rc=2pass / mbtree=0 / bitrate=10300 / ratetol=1.0 / qcomp=0.60 / qpmin=10 / qpmax=51 / qpstep=4 / cplxblur=20.0 / qblur=0.5 / ip_ratio=1.40 / pb_ratio=1.30 / aq=1:1.00
Language : English
Audio #1
ID : 2
Format : AC-3
Format/Info : Audio Coding 3
Codec ID : A_AC3
Duration : 1h 36mn
Bit rate mode : Constant
Bit rate : 128 Kbps
Channel(s) : 2 channels
Channel positions : L R
Sampling rate : 48.0 KHz
Stream size : 88.2 MiB (1%)
Title : MVO
Language : Russian
Audio #2
ID : 3
Format : DTS
Format/Info : Digital Theater Systems
Codec ID : A_DTS
Duration : 1h 36mn
Bit rate mode : Constant
Bit rate : 1 510 Kbps
Channel(s) : 6 channels
Channel positions : Front: L C R, Surround: L R, LFE
Sampling rate : 48.0 KHz
Resolution : 24 bits
Stream size : 1.02 GiB (13%)
Text
ID : 4
Format : UTF-8
Codec ID : S_TEXT/UTF8
Codec ID/Info : UTF-8 Plain Text
Language : Russian
Other forum [Profile] [PM]
Display posts from previous:    
Reply to topic

The time now is: Today 03:42

All times are GMT + 3 Hours



You cannot post new topics in this forum
You cannot reply to topics in this forum
You cannot edit your posts in this forum
You cannot delete your posts in this forum
You cannot vote in polls in this forum
You cannot attach files in this forum
You cannot download files in this forum