Today is a free download without charge Download

Игрок пинг-понга / Ping Pong Playa (Джессика Ю / Jessica Yu) [1080p] [2007 г., комедия, спорт, BDRip] DVO

Reply to topic
 
Author
Message

Omen ®

Longevity: 8 years 5 months

Posts: 181087

Торрент-статистика

Post 10-Jun-2013 00:41

[Quote]

Игрок пинг-понга / Ping Pong Playa
Год выпуска: 2007
Страна: США
Жанр: комедия, спорт
Продолжительность: 01:36:08
Перевод: Профессиональный (двухголосый)
Русские субтитры: нет
Режиссер: Джессика Ю / Jessica Yu
В ролях: Джимми Тсаи, Роджер Фэн, Шелли Мэлил, Александр Агейт, Персивал Арчибаль, Уильям Белендорф, Адам Боброу, Джои Брэндер, Ромео Браун, Смит Чо, Мартин Чоу, Катрин Дао, Джордан Грин, Кики Лау, Джим Лау, Скотт Лоуелл, Питер Пейдж, Хари Пэйтон, Хавин Рейд, Джордан Уолкер Росс, Эстер Сонг, Джозеф Стефенс мл., Джейсон Стюарт, Элизабет Санг, Элан Том, Эндрю Во, Стефни Уир, Тим Берден
Описание: Картина повествует о Кристофере Уонге, молодом человеке, чьи мечты стать баскетболистом потерпели крах. Он начинает учиться играть в пинг-понг и попадает на чемпионат по пинг-понгу Golden Cock в Калифорнии, после того как его старший брат и мать попадают в автокатастрофу.
Доп. информация:
Качество: BDRip
Формат: MKV
Видео: MPEG4 Video (H264) 1920x1040 23.98fps ~ 10.3 Mbps
Аудио: [RUS] 48 kHz, AC3 Dolby Digital, 2/0 (L,R) ch, ~192 kbps
Аудио: [ENG] 48 kHz, DTS, 3/2 (L,C,R,l,r) + LFE ch, ~1510.00 kbps avg
за звук спасибо 25кадру

MI

General
Complete name : J:\Ping.Pong.Playa.2007.1080p.BluRay.x264.mkv
Format : Matroska
File size : 8.07 GiB
Duration : 1h 36mn
Overall bit rate : 12.0 Mbps
Movie name : Ping.Pong.Playa.2007.1080p.BluRay.x264-CiNEFiLE
Encoded date : UTC 2010-12-19 00:10:23
Writing application : mkvmerge v3.2.0 ('Beginnings') built on Feb 12 2010 16:46:17
Writing library : libebml v0.7.9 + libmatroska v0.8.1
Video
ID : 1
Format : AVC
Format/Info : Advanced Video Codec
Format profile : [email protected]
Format settings, CABAC : Yes
Format settings, ReFrames : 4 frames
Muxing mode : Container [email protected]
Codec ID : V_MPEG4/ISO/AVC
Duration : 1h 36mn
Bit rate : 10.1 Mbps
Nominal bit rate : 10.3 Mbps
Width : 1 920 pixels
Height : 1 040 pixels
Display aspect ratio : 16:9
Frame rate : 23.976 fps
Resolution : 8 bits
Colorimetry : 4:2:0
Scan type : Progressive
Bits/(Pixel*Frame) : 0.211
Stream size : 6.76 GiB (84%)
Writing library : x264 core 66 r1109 75b495f
Encoding settings : cabac=1 / ref=4 / deblock=1:0:0 / analyse=0x3:0x113 / me=umh / subme=7 / psy_rd=1.0:0.0 / mixed_ref=1 / me_range=16 / chroma_me=1 / trellis=1 / 8x8dct=1 / cqm=0 / deadzone=21,11 / chroma_qp_offset=-2 / threads=6 / nr=0 / decimate=1 / mbaff=0 / bframes=3 / b_pyramid=1 / b_adapt=1 / b_bias=0 / direct=1 / wpredb=1 / keyint=250 / keyint_min=25 / scenecut=40(pre) / rc=2pass / bitrate=10320 / ratetol=1.0 / qcomp=0.60 / qpmin=10 / qpmax=51 / qpstep=4 / cplxblur=20.0 / qblur=0.5 / ip_ratio=1.40 / pb_ratio=1.30 / aq=1:1.00
Language : English
Audio #1
ID : 2
Format : AC-3
Format/Info : Audio Coding 3
Codec ID : A_AC3
Duration : 1h 36mn
Bit rate mode : Constant
Bit rate : 192 Kbps
Channel(s) : 2 channels
Channel positions : L R
Sampling rate : 48.0 KHz
Stream size : 132 MiB (2%)
Title : профессиональный двухголосый
Language : Russian
Audio #2
ID : 3
Format : DTS
Format/Info : Digital Theater Systems
Codec ID : A_DTS
Duration : 1h 36mn
Bit rate mode : Constant
Bit rate : 1 510 Kbps
Channel(s) : 6 channels
Channel positions : Front: L C R, Surround: L R, LFE
Sampling rate : 48.0 KHz
Resolution : 24 bits
Stream size : 1.01 GiB (13%)
Text
ID : 4
Format : UTF-8
Codec ID : S_TEXT/UTF8
Codec ID/Info : UTF-8 Plain Text
Language : English

Скриншоты

Other forum [Profile] [PM]
Display posts from previous:    
Reply to topic

The time now is: Today 10:58

All times are GMT + 3 Hours



You cannot post new topics in this forum
You cannot reply to topics in this forum
You cannot edit your posts in this forum
You cannot delete your posts in this forum
You cannot vote in polls in this forum
You cannot attach files in this forum
You cannot download files in this forum