Today is a free download without charge Download

Любимчик / De-Lovely (Ирвин Уинклер / Irwin Winkler) [2004 г., драма, биография, музыка, BDRemux 1080p] Dub + DVO + AVO (Сербин)

Reply to topic
 
Author
Message

Omen ®

Longevity: 8 years 5 months

Posts: 181087

Торрент-статистика

Post 10-Jun-2013 00:41

[Quote]

Любимчик / De-Lovely
Год выпуска: 2004
Страна: США, Великобритания
Жанр: драма, биография, музыка
Продолжительность: 2:05:06
Перевод: Профессиональный (полное дублирование)
Перевод: Профессиональный (двухголосый)
Cубтитры: русские (только песни), английские
Режиссер: Ирвин Уинклер / Irwin Winkler
В ролях: Кевин Клайн, Эшли Джадд, Джонатан Прайс, Кевин МакНэлли, Сандра Нельсон, Аллан Кордунер, Питер Поликарпу, Кит Аллен, Джеймс Уилби, Кевин МакКидд, Ричард Диллэйн, Эдвард Бейкер-Дьюли, Энджи Хилл, Гарри Дитсон, Тайлер Хэмилтон, Лекси Пил, Грег Шеффилд, Питер Джессоп, Джефф Хардинг, Сюзанна Феллоуз, Тедди Кемпнер, Коул Портер, Робби Уильямс, Лемар Обика, Элвис Костелло, Аланис Морисетт, Джон Барроумен, Кэролайн О’Коннор, Шерил Кроу, Мик Хакнэлл, Дайана Крoлл, Вивиан Грин, Лара Фабиан, Марио Франгоулис, Натали Коул, Julian Cannoneir, Элизабет Купер Ги, Джейкоб Чэпман, Кевин Корнуолл, Мэтт Демпси, Хезер Дуглас, Джонатан Д. Эллис, Джейн Фоулер, Джейсон Гардинер, Шарлотта Гортон, Nic Greenshields, Akiya Henry, Стив Лоутон, Дункан МакВикар, Karen McSween, Michelle McSween, Дэйл Мерсер, Samantha Modeste, Odette Pendrisat, Thern Reynolds, Рэйчел Стэнли, Оливер Торнтон, Claire Winsper, Гари Блэр, Николя Доун, Джеймс Фишер, Кристин Хьюит, Andrew Langtree
Описание: История жизни американского композитора Коула Портера. А вся его жизнь заключалась в музыке, сцене и его жене Линде Ли…
Доп. информация: РЕЛИЗ ГРУППЫ
Качество: BDRemux
Формат: MKV
Видео: MPEG-4 AVC Video 37841 kbps 1080p / 23.976 fps / 16:9 / High Profile 4.1
Аудио: Dolby Digital Audio Russian 2.0 / 48 kHz / 192 kbps [дубляж]
Аудио: Dolby Digital Audio Russian 5.1 / 48 kHz / 448 kbps
Аудио: DTS-HD Master Audio Russian 5.1 / 48 kHz / 3745 kbps / 24-bit (DTS Core: 5.1 / 48 kHz / 1509 kbps / 24-bit)
Аудио: DTS-HD Master Audio English 5.1 / 48 kHz / 3895 kbps / 24-bit (DTS Core: 5.1 / 48 kHz / 1509 kbps / 24-bit)
Цитата:
  • за дубляж спасибо IVH
  • Дорожка №3 получена наложением чистого голоса на центр декодированного DTS-HD MA
    За чистый голос Сербина спасибо

MI

General
Unique ID : 235323988153228016697933430105711210289 (0xB109C0650950942197D2BEA406D66F31)
Complete name : G:\Bluray\De-Lovely.2004.1080p.Bluray.AVC.Remux.mkv
Format : Matroska
Format version : Version 2
File size : 39.3 GiB
Duration : 2h 5mn
Overall bit rate : 44.9 Mbps
Movie name : De-Lovely.2004.1080p.Bluray.AVC.Remux
Encoded date : UTC 2012-03-18 00:38:45
Writing application : mkvmerge v4.9.1 ('Ich will') сборка от Jul 11 2011 23:53:15
Writing library : libebml v1.2.1 + libmatroska v1.1.1
Video
ID : 1
Format : AVC
Format/Info : Advanced Video Codec
Format profile : [email protected]
Format settings, CABAC : Yes
Format settings, ReFrames : 4 frames
Format settings, GOP : M=2, N=26
Codec ID : V_MPEG4/ISO/AVC
Duration : 2h 5mn
Bit rate mode : Variable
Bit rate : 38.0 Mbps
Width : 1 920 pixels
Height : 1 080 pixels
Display aspect ratio : 16:9
Frame rate : 23.976 fps
Color space : YUV
Chroma subsampling : 4:2:0
Bit depth : 8 bits
Scan type : Progressive
Bits/(Pixel*Frame) : 0.764
Stream size : 33.6 GiB (86%)
Color primaries : BT.709-5, BT.1361, IEC 61966-2-4, SMPTE RP177
Transfer characteristics : BT.709-5, BT.1361
Matrix coefficients : BT.709-5, BT.1361, IEC 61966-2-4 709, SMPTE RP177
Audio #1
ID : 2
Format : AC-3
Format/Info : Audio Coding 3
Mode extension : CM (complete main)
Codec ID : A_AC3
Duration : 2h 5mn
Bit rate mode : Constant
Bit rate : 192 Kbps
Channel(s) : 2 channels
Channel positions : Front: L R
Sampling rate : 48.0 KHz
Bit depth : 16 bits
Compression mode : Lossy
Stream size : 172 MiB (0%)
Title : дубляж
Language : Russian
Audio #2
ID : 3
Format : AC-3
Format/Info : Audio Coding 3
Mode extension : CM (complete main)
Codec ID : A_AC3
Duration : 2h 5mn
Bit rate mode : Constant
Bit rate : 448 Kbps
Channel(s) : 6 channels
Channel positions : Front: L C R, Side: L R, LFE
Sampling rate : 48.0 KHz
Bit depth : 16 bits
Compression mode : Lossy
Stream size : 401 MiB (1%)
Language : Russian
Audio #3
ID : 4
Format : DTS
Format/Info : Digital Theater Systems
Format profile : MA / Core
Codec ID : A_DTS
Duration : 2h 5mn
Bit rate mode : Variable
Bit rate : 2 497 Kbps / 1 510 Kbps
Channel(s) : 6 channels
Channel positions : Front: L C R, Side: L R, LFE
Sampling rate : 48.0 KHz
Bit depth : 24 bits
Compression mode : Lossless / Lossy
Title : Юрий Сербин
Language : Russian
Audio #4
ID : 5
Format : DTS
Format/Info : Digital Theater Systems
Format profile : MA / Core
Codec ID : A_DTS
Duration : 2h 5mn
Bit rate mode : Variable
Bit rate : 2 440 Kbps / 1 510 Kbps
Channel(s) : 6 channels
Channel positions : Front: L C R, Side: L R, LFE
Sampling rate : 48.0 KHz
Bit depth : 24 bits
Compression mode : Lossless / Lossy
Language : English
Text #1
ID : 6
Format : UTF-8
Codec ID : S_TEXT/UTF8
Codec ID/Info : UTF-8 Plain Text
Language : Russian
Text #2
ID : 7
Format : UTF-8
Codec ID : S_TEXT/UTF8
Codec ID/Info : UTF-8 Plain Text
Language : English
Menu
00:00:00.000 : en:00:00:00.000
00:02:44.247 : en:00:02:44.247
00:06:03.196 : en:00:06:03.196
00:08:10.782 : en:00:08:10.782
00:11:52.629 : en:00:11:52.629
00:16:07.633 : en:00:16:07.633
00:19:27.333 : en:00:19:27.333
00:24:51.615 : en:00:24:51.615
00:27:03.205 : en:00:27:03.205
00:30:23.238 : en:00:30:23.238
00:31:33.767 : en:00:31:33.767
00:35:18.408 : en:00:35:18.408
00:39:18.481 : en:00:39:18.481
00:43:27.104 : en:00:43:27.104
00:47:53.329 : en:00:47:53.329
00:51:25.207 : en:00:51:25.207
00:52:52.294 : en:00:52:52.294
00:53:54.481 : en:00:53:54.481
00:57:23.815 : en:00:57:23.815
01:00:45.350 : en:01:00:45.350
01:05:14.828 : en:01:05:14.828
01:07:13.613 : en:01:07:13.613
01:09:44.430 : en:01:09:44.430
01:11:52.308 : en:01:11:52.308
01:14:38.265 : en:01:14:38.265
01:15:58.262 : en:01:15:58.262
01:19:48.534 : en:01:19:48.534
01:24:10.671 : en:01:24:10.671
01:26:34.189 : en:01:26:34.189
01:32:05.019 : en:01:32:05.019
01:34:28.913 : en:01:34:28.913
01:41:56.110 : en:01:41:56.110
01:45:07.301 : en:01:45:07.301
01:47:03.000 : en:01:47:03.000
01:52:43.674 : en:01:52:43.674
01:58:26.141 : en:01:58:26.141

Скриншоты

Other forum [Profile] [PM]
Display posts from previous:    
Reply to topic

The time now is: Today 11:34

All times are GMT + 3 Hours



You cannot post new topics in this forum
You cannot reply to topics in this forum
You cannot edit your posts in this forum
You cannot delete your posts in this forum
You cannot vote in polls in this forum
You cannot attach files in this forum
You cannot download files in this forum