Today is a free download without charge Download

Эрнест в лагере / Ernest Goes to Camp (Джон Р. Черри III / John R. Cherry III) [1987 г., комедия, BDRemux 1080i] AVO (Гаврилов)

Reply to topic
 
Author
Message

Omen ®

Longevity: 8 years 5 months

Posts: 181087

Торрент-статистика

Post 10-Jun-2013 00:41

[Quote]

Эрнест в лагере / Ernest Goes to Camp
Год выпуска: 1987
Страна: США
Жанр: комедия
Продолжительность: 1:32:00
Перевод: Авторский (одноглосый) Андрей Гаврилов
Русские субтитры: нет
Режиссер: Джон Р. Черри III / John R. Cherry III
В ролях: Джим Варни, Виктория Расимо, Джон Вернон, Айрон ангела Коуди, Лайл Альзадо, Гейлард Сартейн, Дэниэл Батлер, Патрик Дэй, Скотт Менвилль, Джейкоб Варгас, Дэнни Капри, Hakeem Abdul-Samad, Тодд Лойд, Эндрю Вудворт, Ричард Спейт мл., Джеффри Бакнер Форд, Ларри Блэк, Эдди Шумахер, Хью Синклер, Джонсон Уэст, Жан Уилсон, Мак Беннетт, Джон Браун, Роберт Грин Бенсон III, Адам Рафф, Michael Chappelear, Lance Bridgesmith, Паоло Делеон, Харви Годвин мл., Джефф Стэндинг Беар, Иван Грин, Кристиан Хаас, Бренда Хэйнс, Джим Хенсон, Майк Хатчинсон
Описание: Молодых хулиганов отправляют в трудовой детский лагерь, а следить за ними должен Эрнест. К сожалению, Эрнест и за собой уследить не может, не то что за группой сорванцов.
Доп. информация: РЕЛИЗ ГРУППЫ
Качество: BDRemux
Формат: TS
Видео: MPEG-4 AVC Video 24923 kbps 1080i / 29.970 fps / 16:9 / High Profile 4.1
Аудио: Dolby Digital Audio Russian 2.0 / 48 kHz / 192 kbps
Аудио: Dolby Digital Audio English 2.0 / 48 kHz / 192 kbps / DN -4dB
Перевод данного фильма Андреем Гавриловым стал возможным благодаря группе неравнодушных к авторскому переводу пользователей
dunhill200, Goldtwait, lexal2002, Chistobaev,Fess Necromant,Dimec89, Pr0peLLer, pavel0701.93, Джосс, vvladvvv2009, anton966, audax, tatyanochka2011, Fess Necromant2, Fess Necromant3, Vitya0007, audiolubitel, kinobbk, -Marlon-, The One More, Инкогнито

MI

General
ID : 1 (0x1)
Complete name : J:\Ernest.Goes.to.Camp.1987.1080i.Bluray.AVC.Remux.ts
Format : MPEG-TS
File size : 16.7 GiB
Duration : 1h 32mn
Overall bit rate : 26.0 Mbps
Maximum Overall bit rate : 35.5 Mbps
Video
ID : 4113 (0x1011)
Menu ID : 1 (0x1)
Format : AVC
Format/Info : Advanced Video Codec
Format profile : [email protected]
Format settings, CABAC : Yes
Format settings, ReFrames : 4 frames
Codec ID : 27
Duration : 1h 32mn
Bit rate mode : Variable
Bit rate : 24.4 Mbps
Maximum bit rate : 35.0 Mbps
Width : 1 920 pixels
Height : 1 080 pixels
Display aspect ratio : 16:9
Frame rate : 29.970 fps
Standard : NTSC
Color space : YUV
Chroma subsampling : 4:2:0
Bit depth : 8 bits
Scan type : MBAFF
Bits/(Pixel*Frame) : 0.392
Stream size : 15.6 GiB (94%)
Color primaries : BT.709-5, BT.1361, IEC 61966-2-4, SMPTE RP177
Transfer characteristics : BT.709-5, BT.1361
Matrix coefficients : BT.709-5, BT.1361, IEC 61966-2-4 709, SMPTE RP177
Audio #1
ID : 4352 (0x1100)
Menu ID : 1 (0x1)
Format : AC-3
Format/Info : Audio Coding 3
Mode extension : CM (complete main)
Codec ID : 129
Duration : 1h 32mn
Bit rate mode : Constant
Bit rate : 192 Kbps
Channel(s) : 2 channels
Channel positions : Front: L R
Sampling rate : 48.0 KHz
Bit depth : 16 bits
Compression mode : Lossy
Stream size : 126 MiB (1%)
Language : Russian
Audio #2
ID : 4353 (0x1101)
Menu ID : 1 (0x1)
Format : AC-3
Format/Info : Audio Coding 3
Mode extension : CM (complete main)
Codec ID : 129
Duration : 1h 32mn
Bit rate mode : Constant
Bit rate : 192 Kbps
Channel(s) : 2 channels
Channel positions : Front: L R
Sampling rate : 48.0 KHz
Bit depth : 16 bits
Compression mode : Lossy
Stream size : 126 MiB (1%)
Language : English

Скриншоты

Other forum [Profile] [PM]
Display posts from previous:    
Reply to topic

The time now is: Today 19:05

All times are GMT + 3 Hours



You cannot post new topics in this forum
You cannot reply to topics in this forum
You cannot edit your posts in this forum
You cannot delete your posts in this forum
You cannot vote in polls in this forum
You cannot attach files in this forum
You cannot download files in this forum