Today is a free download without charge Download

Кокон / Cocoon (Рон Ховард) (Фантастика, 1985) BDRip [1080p]

Reply to topic
 
Author
Message

Omen ®

Longevity: 8 years 5 months

Posts: 181087

Торрент-статистика

Post 09-Jun-2013 21:02

[Quote]

Кокон / Cocoon -
Русское название: Кокон
Оригинальное название: Cocoon
Год выпуска: 1985
Производство: США
Жанр: Фантастика--Описание фильма:
Трое старичков-приятелей монотонно коротали последние деньки в доме престарелых. Случайно по соседству на заброшеном участке они обнаружили бассейн. Жизнь приобрела смысл. Старики частенько стали уходить в "самоволку", дабы окунуться в прохладном бассейне. Через какое-то время в бассейне появляются загадочные коконы, поросшие водорослями и ракушками. Они превращают бассейн в источник живой воды: раз искупавшись, старики чувствуют невероятный прилив сил, они буквально молодеют на глазах... Старички резко возжелали омолодиться и увязались в увлекательную, но небезопасную авантюру, которая сопряжена со множеством нарушений и шума.--Режиссер: Рон Ховард
Актеры: Дон Амичи, Уилфорд Бримли, Хьюм Кронин, Брайан Деннехи, Джек Гилфорд, Стив Гуттенберг, Морин Стейплтон, Джессика Тэнди, Гуэн Вердон, Херта Уэр, Тэхни Уэлч, Баррет Оливер, Линда Харрисон, Клинт Ховард, Чарльз Лампкин, Майк Номэд, Хорхе Джил и др.
Продолжительность: 01:57:11
Перевод: Профессиональный (многоголосый закадровый), Авторский (одноголосый закадровый), Профессиональный (полное дублирование)
Язык субтитров: Русский, английский
Вид субтитров: Вшитые отключаемые

Дата мировой премьеры: 21 июня 1985
Дата выхода DVD релиза: 29 января 2009, «Двадцатый Век Фокс СНГ»
Видеокодек: MPEG-4 AVC/H.264
Битрейт видео: ~9552 Кбит/сек
Размер кадра: 1920x1080
Качество видео: BDRip
Аудиокодек: DTS , AC3
Аудио #1: Русский ( DTS / 5.1 / 48 kHz / 1536 kbps ) - Профессиональный (многоголосый)
Аудио #2: Русский ( DTS / 5.1 / 48 kHz / 1536 kbps ) - Авторский (одноголосый) - Гаврилов
Аудио #3: Русский ( AC3 / 2.0 / 48 kHz / 192 kbps ) - Профессиональный (дублированный) - СССР
Аудио #4: Английский ( DTS / 5.1 / 48 kHz / 1536 kbps )
-

Награды и номинации


Оскар, 1986 год
Победитель (2):
Лучшая мужская роль второго плана (Дон Амичи)
Лучшие визуальные эффекты


Золотой глобус, 1986 год
Номинации (1):
Лучший фильм (комедия или мюзикл)


Сатурн, 1986 год
Победитель (1):
Лучший режиссер (Рон Ховард)
Номинации (6):
Лучший научно-фантастический фильм
Лучший актер
(Хьюм Кронин)
Лучшая актриса (Джессика Тэнди)
Лучшая актриса второго плана (Гвен Вердон)
Лучший сценарий
Лучшая музыка

-

MediaInfo:

Общее
Уникальный идентификатор : 179461612033995007358835187037089256583 (0x87030C9B8B81CB039C9B627A41EF5487)
Полное имя : Кокон _ Cocoon (1985).BDRip.1080p.mkv
Формат : Matroska
Версия формата : Version 2
Размер файла : 11,9 Гбайт
Продолжительность : 1 ч. 57 м.
Общий поток : 14,6 Мбит/сек
Название фильма : -=Dkom=-
Дата кодирования : UTC 2010-05-11 16:19:08
Программа кодирования : mkvmerge v3.3.0 ('Language') built on Mar 24 2010 14:59:24
Библиотека кодирования : libebml v0.8.0 + libmatroska v0.9.0
Видео
Идентификатор : 1
Формат : AVC
Формат/Информация : Advanced Video Codec
Профиль формата : [url=mailto:[email protected]][email protected][/url]
Параметр CABAC формата : Да
Параметр ReFrames формата : 4 кадра
Идентификатор кодека : V_MPEG4/ISO/AVC
Продолжительность : 1 ч. 57 м.
Битрейт : 9552 Кбит/сек
Номинальный битрейт : 10,2 Мбит/сек
Ширина : 1920 пикселей
Высота : 1080 пикселей
Соотношение сторон : 16:9
Режим частоты кадров : Постоянный
Частота кадров : 23,976 кадра/сек
Цветовое пространство : YUV
Субдискретизация насыщенности : 4:2:0
Битовая глубина : 8 бит
Тип развёртки : Прогрессивная
Бит/(Пиксели*Кадры) : 0.192
Размер потока : 7,82 Гбайт (66%)
Заголовок : Cocoon, 1985, 1080p, BDRip, -=Dkom=-
Библиотека кодирования : x264 core 92 r1510 33d382a
Настройки программы : cabac=1 / ref=4 / deblock=1:-3:-3 / analyse=0x3:0x133 / me=umh / subme=10 / psy=1 / psy_rd=1.00:0.00 / mixed_ref=1 / me_range=64 / chroma_me=1 / trellis=2 / 8x8dct=1 / cqm=0 / deadzone=21,11 / fast_pskip=0 / chroma_qp_offset=-2 / threads=3 / sliced_threads=0 / nr=0 / decimate=1 / interlaced=0 / constrained_intra=0 / bframes=7 / b_pyramid=2 / b_adapt=2 / b_bias=0 / direct=3 / wpredb=1 / wpredp=2 / keyint=250 / keyint_min=25 / scenecut=40 / intra_refresh=0 / rc_lookahead=40 / rc=2pass / mbtree=1 / bitrate=10241 / ratetol=1.0 / qcomp=0.60 / qpmin=10 / qpmax=51 / qpstep=4 / cplxblur=20.0 / qblur=0.5 / vbv_maxrate=25000 / vbv_bufsize=25000 / ip_ratio=1.40 / aq=1:1.00 / nal_hrd=none
Язык : English
Default : Да
Forced : Нет
Аудио #1
Идентификатор : 2
Формат : DTS
Формат/Информация : Digital Theater Systems
Идентификатор кодека : A_DTS
Продолжительность : 1 ч. 57 м.
Вид битрейта : Постоянный
Битрейт : 1510 Кбит/сек
Каналы : 6 каналов
Расположение каналов : Front: L C R, Side: L R, LFE
Частота : 48,0 КГц
Битовая глубина : 24 бит
Метод сжатия : С потерями
Размер потока : 1,24 Гбайт (10%)
Заголовок : DTS 5.1 1536 Kbps (MVO)
Язык : Russian
Default : Да
Forced : Нет
Аудио #2
Идентификатор : 3
Формат : DTS
Формат/Информация : Digital Theater Systems
Идентификатор кодека : A_DTS
Продолжительность : 1 ч. 57 м.
Вид битрейта : Постоянный
Битрейт : 1510 Кбит/сек
Каналы : 6 каналов
Расположение каналов : Front: L C R, Side: L R, LFE
Частота : 48,0 КГц
Битовая глубина : 24 бит
Метод сжатия : С потерями
Размер потока : 1,24 Гбайт (10%)
Заголовок : DTS 5.1 1536 Kbps (AVO, Гаврилов)
Язык : Russian
Default : Нет
Forced : Нет
Аудио #3
Идентификатор : 4
Формат : AC-3
Формат/Информация : Audio Coding 3
Расширение режима : CM (complete main)
Параметр Endianness формата : Big
Идентификатор кодека : A_AC3
Продолжительность : 1 ч. 57 м.
Вид битрейта : Постоянный
Битрейт : 192 Кбит/сек
Каналы : 2 канала
Расположение каналов : Front: L R
Частота : 48,0 КГц
Битовая глубина : 16 бит
Метод сжатия : С потерями
Размер потока : 161 Мбайт (1%)
Заголовок : AC3 2.0 192 Kbps (DUB)
Язык : Russian
Default : Нет
Forced : Нет
Аудио #4
Идентификатор : 5
Формат : DTS
Формат/Информация : Digital Theater Systems
Идентификатор кодека : A_DTS
Продолжительность : 1 ч. 57 м.
Вид битрейта : Постоянный
Битрейт : 1510 Кбит/сек
Каналы : 6 каналов
Расположение каналов : Front: L C R, Side: L R, LFE
Частота : 48,0 КГц
Битовая глубина : 24 бит
Метод сжатия : С потерями
Размер потока : 1,24 Гбайт (10%)
Заголовок : DTS 5.1 1536Kbps
Язык : English
Default : Нет
Forced : Нет
Текст #1
Идентификатор : 6
Формат : UTF-8
Идентификатор кодека : S_TEXT/UTF8
Идентификатор кодека/Информация : UTF-8 Plain Text
Язык : Russian
Default : Нет
Forced : Нет
Текст #2
Идентификатор : 7
Формат : UTF-8
Идентификатор кодека : S_TEXT/UTF8
Идентификатор кодека/Информация : UTF-8 Plain Text
Язык : English
Default : Нет
Forced : Нет
-Скриншоты:

         
         

Other forum [Profile] [PM]
Display posts from previous:    
Reply to topic

The time now is: Today 10:38

All times are GMT + 3 Hours



You cannot post new topics in this forum
You cannot reply to topics in this forum
You cannot edit your posts in this forum
You cannot delete your posts in this forum
You cannot vote in polls in this forum
You cannot attach files in this forum
You cannot download files in this forum