Today is a free download without charge Download

Последняя любовь на Земле / Perfect Sense (Дэвид МакКензи / David Mackenzie) [2011, Великобритания, драма, BDRip 1080p]

Reply to topic
 
Author
Message

Omen ®

Longevity: 8 years 5 months

Posts: 181087

Торрент-статистика

Post 09-Jun-2013 20:32

[Quote]

Последняя любовь на Земле / Perfect Sense (Дэвид МакКензи / David Mackenzie) [2011, Великобритания, драма, BDRip 1080p]
Страна: Великобритания, Швеция, Дания, Ирландия
Жанр: фантастика, драма, мелодрама
Год выпуска: 2011
Продолжительность: 01:32:32
Перевод: Профессиональный (многоголосый закадровый)
Cубтитры: нет
Режиссер: Дэвид МакКензи / David Mackenzie
В ролях: Юэн МакГрегор, Ева Грин, Лорен Томпани, Конни Нильсен, Дэнис Лосон, Стивен Диллэйн, Шабана Ахтар Бакхш, Кэролайн Патерсон, Малкольм Шилдс, Джудит Энн Кристи
Описание: Земля столкнулась с небывалым бедствием. В разных странах, на каждом континенте люди в самом буквальном смысле лишаются чувств — каждого из пяти, одного за другим… Майкл и Сьюзан считают свою связь мимолетной, но когда становится ясно, что мир неумолимо приближается к концу, герои понимают — им уже не прожить друг без друга. Но что останется, когда пропадут последние чувства?
Доп. информация: Видеопоток из оригинального Blu-Ray Remux, аудио пережато из DTS-HD. Вырезаны все аудио-дорожки, кроме русской.
Тип релиза: BDRip 1080p
Контейнер: MKV
Видео: MPEG-4 AVC, 1920x1080, 16:9, 17,6 Мбит/с, 23.976 кадр/с
Аудио: Русский, AC3, 48000 Гц, 5.1, 640 кб/с

MediaInfo

General
Unique ID : 181448230095996661235491571346522198764 (0x8881A870B55D3AD388B13BC17B2352EC)
Complete name : D:\Video\Последняя любовь на Земле.mkv
Format : Matroska
Format version : Version 2
File size : 12.0 GiB
Duration : 1h 32mn
Overall bit rate mode : Variable
Overall bit rate : 18.6 Mbps
Encoded date : UTC 2013-06-09 13:14:43
Writing application : mkvmerge v3.3.0 ('Language') built on Mar 24 2010 14:59:24
Writing library : libebml v0.8.0 + libmatroska v0.9.0
Video
ID : 1
Format : AVC
Format/Info : Advanced Video Codec
Format profile : [email protected]
Format settings, CABAC : Yes
Format settings, ReFrames : 4 frames
Codec ID : V_MPEG4/ISO/AVC
Duration : 1h 32mn
Bit rate mode : Variable
Bit rate : 17.6 Mbps
Maximum bit rate : 40.0 Mbps
Width : 1 920 pixels
Height : 1 080 pixels
Display aspect ratio : 16:9
Frame rate mode : Constant
Frame rate : 23.976 fps
Color space : YUV
Chroma subsampling : 4:2:0
Bit depth : 8 bits
Scan type : Progressive
Bits/(Pixel*Frame) : 0.353
Stream size : 11.4 GiB (95%)
Default : Yes
Forced : No
Color primaries : BT.709
Transfer characteristics : BT.709
Matrix coefficients : BT.709
Audio
ID : 2
Format : AC-3
Format/Info : Audio Coding 3
Mode extension : CM (complete main)
Format settings, Endianness : Big
Codec ID : A_AC3
Duration : 1h 32mn
Bit rate mode : Constant
Bit rate : 640 Kbps
Channel(s) : 6 channels
Channel positions : Front: L C R, Side: L R, LFE
Sampling rate : 48.0 KHz
Bit depth : 16 bits
Compression mode : Lossy
Stream size : 424 MiB (3%)
Default : Yes
Forced : No

Скриншоты

Other forum [Profile] [PM]
Display posts from previous:    
Reply to topic

The time now is: Today 02:20

All times are GMT + 3 Hours



You cannot post new topics in this forum
You cannot reply to topics in this forum
You cannot edit your posts in this forum
You cannot delete your posts in this forum
You cannot vote in polls in this forum
You cannot attach files in this forum
You cannot download files in this forum