Today is a free download without charge Download

Бастион / Rampart (Орен Моверман / Oren Moverman) [2011, США, триллер, драма, криминал, BDRemux 1080p] DVOx2 + Original (Eng) + Subs (Eng)

Reply to topic
 
Author
Message

Omen ®

Longevity: 8 years 5 months

Posts: 181087

Торрент-статистика

Post 09-Jun-2013 20:32

[Quote]

Бастион / Rampart

-
-Страна: США
Студия: Amalgam Features, Lightstream Pictures, Third Mind Pictures, The, Waypoint Entertainment
Жанр: триллер, драма, криминал
Год выпуска: 2011
Продолжительность:01:47:54--Перевод 1: Профессиональный (двухголосый закадровый) студия Elrom
Перевод 2: Любительский (двухголосый закадровый)
Cубтитры: английские SDH
Оригинальная аудиодорожка: английский--Режиссер: Орен Моверман / Oren Moverman
В ролях: Вуди Харрельсон, Нед Битти, Бен Фостер, Энн Хеч, Айс Кьюб, Синтия Никсон, Сигурни Уивер, Робин Райт, Стив Бушеми, Джон Бернтал--Описание: В основу сюжета положен реальный скандал вокруг спецотдела полицейского департамента Лос-Анджелеса, когда более полусотни офицеров предстали перед внутренней администрацией по обвинению в коррупции и превышении должностных полномочий. Офицер, случайно втянутый в это громкое дело, всячески пытается восстановить свое доброе имя и честную репутацию.--imdb | kinopoisk | Сэмпл--Тип релиза: BDRemux 1080p [Rampart 2011 1080p Blu-Ray AVC TrueHD 5.1-HDChina]
Контейнер: MKV
Видео: MPEG-4 AVC / 21242 kbps / 1920x1080 / 23,976 fps / 16:9 / High Profile 4.1
Аудио 1: AC3 / 2.0 / 48 kHz / 192 kbps / 16 bits |DVO, студия Elrom|
Аудио 2: AC3 / 2.0 / 48 kHz / 192 kbps / 16 bits |DVO|
Аудио 3: DTS-HD Master Audio / 5.1 / 48 kHz / 2175 kbps / 16 bits (DTS Core: 5.1 / 48 kHz / 1510 kbps / 16 bits) |original|
Формат субтитров: softsub [SRT]

MediaInfo

ОбщееУникальный идентификатор : 181607266686876793238731653483271219254 (0x88A0498CB173CD798396E8B0C9A6E836)Полное имя : G:\HD\Бастион.2011.Blu-Ray.Remux.(1080p).mkvФормат : MatroskaВерсия формата : Version 2Размер файла : 17,9 ГбайтПродолжительность : 1 ч. 47 м.Режим общего битрейта : ПеременныйОбщий поток : 23,8 Мбит/секДата кодирования : UTC 2013-06-09 14:21:19Программа кодирования : mkvmerge v5.8.0 ('No Sleep / Pillow') built on Sep 2 2012 15:37:04Библиотека кодирования : libebml v1.2.3 + libmatroska v1.3.0
ВидеоИдентификатор : 1Формат : AVCФормат/Информация : Advanced Video CodecПрофиль формата : [email protected]Параметр CABAC формата : ДаПараметр ReFrames формата : 2 кадраПараметр GOP формата : M=1, N=10Режим смешивания : Container [email protected]Идентификатор кодека : V_MPEG4/ISO/AVCПродолжительность : 1 ч. 47 м.Вид битрейта : ПеременныйШирина : 1920 пикселейВысота : 1080 пикселейСоотношение сторон : 16:9Режим частоты кадров : ПостоянныйЧастота кадров : 23,976 кадра/секЦветовое пространство : YUVСубдискретизация насыщенности : 4:2:0Битовая глубина : 8 битТип развёртки : ПрогрессивнаяDefault : ДаForced : Нет
Аудио #1Идентификатор : 2Формат : AC-3Формат/Информация : Audio Coding 3Расширение режима : CM (complete main)Параметр Endianness формата : BigИдентификатор кодека : A_AC3Продолжительность : 1 ч. 47 м.Вид битрейта : ПостоянныйБитрейт : 192 Кбит/секКаналы : 2 каналаРасположение каналов : Front: L RЧастота : 48,0 КГцБитовая глубина : 16 битМетод сжатия : С потерямиРазмер потока : 148 Мбайт (1%)Заголовок : DVO, студия ElromЯзык : RussianDefault : ДаForced : Нет
Аудио #2Идентификатор : 3Формат : AC-3Формат/Информация : Audio Coding 3Расширение режима : CM (complete main)Параметр Endianness формата : BigИдентификатор кодека : A_AC3Продолжительность : 1 ч. 47 м.Вид битрейта : ПостоянныйБитрейт : 192 Кбит/секКаналы : 2 каналаРасположение каналов : Front: L RЧастота : 48,0 КГцБитовая глубина : 16 битМетод сжатия : С потерямиРазмер потока : 148 Мбайт (1%)Заголовок : DVOЯзык : RussianDefault : НетForced : Нет
Аудио #3Идентификатор : 4Формат : DTSФормат/Информация : Digital Theater SystemsПрофиль формата : MA / CoreРежим : 16Параметр Endianness формата : BigИдентификатор кодека : A_DTSПродолжительность : 1 ч. 47 м.Вид битрейта : ПеременныйБитрейт : Неизвестно / 1509 Кбит/секКаналы : 6 каналовРасположение каналов : Front: L C R, Side: L R, LFEЧастота : 48,0 КГцБитовая глубина : 16 битМетод сжатия : Без потерь / LossyЯзык : EnglishDefault : НетForced : Нет
ТекстИдентификатор : 5Формат : UTF-8Идентификатор кодека : S_TEXT/UTF8Идентификатор кодека/Информация : UTF-8 Plain TextЗаголовок : SDHЯзык : EnglishDefault : НетForced : Нет
Меню00:00:00.000 : :Chapter 0100:07:25.903 : :Chapter 0200:17:40.100 : :Chapter 0300:24:45.984 : :Chapter 0400:32:31.616 : :Chapter 0500:42:15.950 : :Chapter 0600:51:46.061 : :Chapter 0701:01:43.157 : :Chapter 0801:08:57.007 : :Chapter 0901:17:03.368 : :Chapter 1001:26:28.266 : :Chapter 1101:39:46.522 : :Chapter 12

Скриншоты


Дополнительно

Цитата:
Русские дорожки взяты с этой раздачи, thx: Grimlen
и с этой раздачи, thx: 25k
Other forum [Profile] [PM]
Display posts from previous:    
Reply to topic

The time now is: Today 11:52

All times are GMT + 3 Hours



You cannot post new topics in this forum
You cannot reply to topics in this forum
You cannot edit your posts in this forum
You cannot delete your posts in this forum
You cannot vote in polls in this forum
You cannot attach files in this forum
You cannot download files in this forum