Today is a free download without charge Download

Жертва / The Victim (Майкл Бин / Michael Biehn) [2011, США, триллер, BDRip 720p]

Reply to topic
 
Author
Message

Omen ®

Longevity: 8 years 5 months

Posts: 181087

Торрент-статистика

Post 09-Jun-2013 20:32

[Quote]

Жертва / The Victim
Страна: США
Жанр: триллер
Год выпуска: 2011
Продолжительность: 01:22:50
Перевод: Одноголосый закадровый
Оригинальная аудиодорожка: английский
Cубтитры: нет
Режиссер: Майкл Бин / Michael Biehn
В ролях: Майкл Бин, Дженнифер Бланк, Райан Хони, Даниэль Харрис, Денни Кирквуд, Таня Ньюболд, Дэна Даури
Описание: Жизнь Энни находится в опасности после того, как она стала свидетелем страшного убийства и изнасилования своей подруги. Спасаясь от двух преступников, она натыкается на Кайла — отшельника, поменявшего шумный город, на уединенный тихий домик в лесу. Но жизнь Кайла резко меняется, и в неё врываются хаос и разрушение.
Семпл: http://multi-up.com/873926
Тип релиза: BDRip 720p
Контейнер: MKV
Видео: 1280*720, 5018 Кбит/сек, 23,976 кадра/сек
Аудио: AC-3, 384 Кбит/сек, 2Ch, 48,0 КГц-русский
Аудио 2: AC-3, 640 Кбит/сек, 6Ch, 48,0 КГц-английский

MediaInfo

Уникальный идентификатор : 214320103777289443293878439850247775719 (0xA13C8CF12A3EBDF8A2A0B7A93BE4E5E7)
Полное имя : M:\vict.720p (RG AVI-AVC).mkv
Формат : Matroska
Версия формата : Version 2
Размер файла : 3,50 Гбайт
Продолжительность : 1 ч. 22 м.
Общий поток : 6044 Кбит/сек
Дата кодирования : UTC 2013-06-09 07:18:36
Программа кодирования : mkvmerge v5.5.0 ('Healer') built on Apr 6 2012 21:43:24
Библиотека кодирования : libebml v1.2.3 + libmatroska v1.3.0
Видео
Идентификатор : 1
Формат : AVC
Формат/Информация : Advanced Video Codec
Профиль формата : [email protected]
Параметр CABAC формата : Да
Параметр ReFrames формата : 5 кадров
Идентификатор кодека : V_MPEG4/ISO/AVC
Продолжительность : 1 ч. 22 м.
Битрейт : 5018 Кбит/сек
Ширина : 1280 пикселей
Высота : 720 пикселей
Соотношение сторон : 16:9
Режим частоты кадров : Постоянный
Частота кадров : 23,976 кадра/сек
Цветовое пространство : YUV
Субдискретизация насыщенности : 4:2:0
Битовая глубина : 8 бит
Тип развёртки : Прогрессивная
Бит/(Пиксели*Кадры) : 0.227
Размер потока : 2,84 Гбайт (81%)
Библиотека кодирования : x264 core 128 r2216 198a7ea
Настройки программы : cabac=1 / ref=5 / deblock=1:0:0 / analyse=0x3:0x133 / me=umh / subme=7 / psy=1 / psy_rd=1.00:0.00 / mixed_ref=1 / me_range=16 / chroma_me=1 / trellis=1 / 8x8dct=1 / cqm=0 / deadzone=21,11 / fast_pskip=0 / chroma_qp_offset=-2 / threads=12 / lookahead_threads=2 / sliced_threads=0 / nr=0 / decimate=1 / interlaced=0 / bluray_compat=0 / constrained_intra=0 / bframes=3 / b_pyramid=2 / b_adapt=2 / b_bias=0 / direct=3 / weightb=1 / open_gop=0 / weightp=2 / keyint=250 / keyint_min=23 / scenecut=40 / intra_refresh=0 / rc_lookahead=50 / rc=2pass / mbtree=1 / bitrate=5018 / ratetol=1.0 / qcomp=0.60 / qpmin=0 / qpmax=69 / qpstep=4 / cplxblur=20.0 / qblur=0.5 / ip_ratio=1.40 / aq=1:1.00
Язык : English
Default : Да
Forced : Нет
Аудио #1
Идентификатор : 2
Формат : AC-3
Формат/Информация : Audio Coding 3
Расширение режима : CM (complete main)
Параметр Endianness формата : Big
Идентификатор кодека : A_AC3
Продолжительность : 1 ч. 22 м.
Вид битрейта : Постоянный
Битрейт : 384 Кбит/сек
Каналы : 2 канала
Расположение каналов : Front: L R
Частота : 48,0 КГц
Битовая глубина : 16 бит
Метод сжатия : С потерями
Размер потока : 228 Мбайт (6%)
Язык : Russian
Default : Да
Forced : Нет
Аудио #2
Идентификатор : 3
Формат : AC-3
Формат/Информация : Audio Coding 3
Расширение режима : CM (complete main)
Параметр Endianness формата : Big
Идентификатор кодека : A_AC3
Продолжительность : 1 ч. 22 м.
Вид битрейта : Постоянный
Битрейт : 640 Кбит/сек
Каналы : 6 каналов
Расположение каналов : Front: L C R, Side: L R, LFE
Частота : 48,0 КГц
Битовая глубина : 16 бит
Метод сжатия : С потерями
Размер потока : 379 Мбайт (11%)
Язык : English
Default : Нет
Forced : Нет
Меню
00:00:00.000 : en:00:00:00.000
00:08:12.492 : en:00:08:12.492
00:16:06.883 : en:00:16:06.883
00:23:38.334 : en:00:23:38.334
00:32:37.497 : en:00:32:37.497
00:40:12.118 : en:00:40:12.118
00:48:09.720 : en:00:48:09.720
00:54:46.116 : en:00:54:46.116
01:01:40.405 : en:01:01:40.405
01:11:43.007 : en:01:11:43.007
01:21:14.745 : en:01:21:14.745
01:27:36.793 : en:01:27:36.793

Скриншоты

Other forum [Profile] [PM]
Display posts from previous:    
Reply to topic

The time now is: Today 01:16

All times are GMT + 3 Hours



You cannot post new topics in this forum
You cannot reply to topics in this forum
You cannot edit your posts in this forum
You cannot delete your posts in this forum
You cannot vote in polls in this forum
You cannot attach files in this forum
You cannot download files in this forum