Today is a free download without charge Download

Неспящие в Сиэтле / Sleepless in Seattle (Нора Эфрон / Nora Ephron) [1993, США, комедия, мелодрама, Blu-ray disc] Dub + Sub Rus, Eng + Original Eng

Reply to topic
 
Author
Message

Omen ®

Longevity: 8 years 5 months

Posts: 181087

Торрент-статистика

Post 09-Jun-2013 16:26

[Quote]

Неспящие в Сиэтле / Sleepless in Seattle
Страна: США
Жанр: комедия, мелодрама
Год выпуска: 1993
Продолжительность: 01:45:05
Перевод: Профессиональный (дублированный)
Cубтитры: английские, арабский, китайские, чешские, датские, голландские, финские, французские, немецкие, греческие, иврит, хинди, венгерские, итальянские, японские, корейские, норвежские, польские, португальские, русские, испанские, шведские, тайские
Оригинальная аудиодорожка: английский
Режиссер: Нора Эфрон /Nora Ephron
В ролях: Том Хэнкс /Tom Hanks/, Мег Райан /Meg Ryan/, Росс Мэлингер /Ross Malinger/, Билл Пуллман /Bill Pullman/, Рози О'Доннелл /Rosie O'Donnell/, Гэби Хоффманн /Gaby Hoffmann
Описание: Поздней ночью радио доносит голос маленького ребенка, который ищет себе маму. Сотни женщин со всей страны откликаются на этот зов, и только одна из них понимает: отец ребенка и она предназначены друг для друга, пусть даже между ними сотни миль. И не беда, что она обручена, а ее новый избранник еще ничего не знает о ней. Его единственная и далекая ждет и ищет его, влюбившись с первого звука его голоса.
Тип релиза: Blu-ray disc
Контейнер: BDMV
Видео: MPEG-4 AVC Video, 27938 kbps, 1080p, 23.976 fps, 16:9, High Profile 4.1
Аудио 1: английский / DTS-HD Master Audio / 5.1 / 48 kHz / 2909 kbps / 24-bit (DTS Core: 5.1 / 48 kHz / 1509 kbps / 24-bit)
Аудио 2: французский / AC3 / 192 kbps / 48 kHz / Dolby Digital 2.0
Аудио 3: немецкий / AC3 / 192 kbps / 48 kHz / Dolby Digital 2.0
Аудио 4: итальянский / AC3 / 192 kbps / 48 kHz / Dolby Digital 2.0
Аудио 5: японский / AC3 / 192 / kbps / 48 kHz / Dolby Digital 2.0
Аудио 6: русский / AC3 / 192 kbps / 48 kHz / Dolby Digital 2.0
Аудио 7: испанский / AC3 / 192 kbps / 48 kHz / Dolby Digital 2.0
Аудио 8: испанский / AC3 / 192 kbps / 48 kHz / Dolby Digital 2.0

BDinfo

Disc Title: Sleepless in Seattle 1993 1080p Blu-ray AVC DTS-HD MA 5.1-PCH
Disc Size: 29 050 889 160 bytes
Protection: AACS
BD-Java: Yes
BDInfo: 0.5.8
Notes:
BDINFO HOME:
Cinema Squid
http://www.cinemasquid.com/blu-ray/tools/bdinfo
INCLUDES FORUMS REPORT FOR:
AVS Forum Blu-ray Audio and Video Specifications Thread
http://www.avsforum.com/avs-vb/showthread.php?t=1155731
********************
PLAYLIST: 00001.MPLS
********************
Код:
Total   Video
Title                                                           Codec   Length  Movie Size      Disc Size       Bitrate Bitrate Main Audio Track                          Secondary Audio Track
-----                                                           ------  ------- --------------  --------------  ------- ------- ------------------                        ---------------------
00001.MPLS                                                      AVC     1:45:05 27 532 769 280  29 050 889 160  34,93   27,94   DTS-HD Master 5.1 2909Kbps (48kHz/24-bit)
Код:
DISC INFO:
Disc Title:     Sleepless in Seattle 1993 1080p Blu-ray AVC DTS-HD MA 5.1-PCH
Disc Size:      29 050 889 160 bytes
Protection:     AACS
BD-Java:        Yes
BDInfo:         0.5.8
PLAYLIST REPORT:
Name:                   00001.MPLS
Length:                 1:45:05.299 (h:m:s.ms)
Size:                   27 532 769 280 bytes
Total Bitrate:          34,93 Mbps
(*) Indicates included stream hidden by this playlist.
VIDEO:
Codec                   Bitrate             Description
-----                   -------             -----------
MPEG-4 AVC Video        27938 kbps          1080p / 23,976 fps / 16:9 / High Profile 4.1
AUDIO:
Codec                           Language        Bitrate         Description
-----                           --------        -------         -----------
DTS-HD Master Audio             English         2909 kbps       5.1 / 48 kHz / 2909 kbps / 24-bit (DTS Core: 5.1 / 48 kHz / 1509 kbps / 24-bit)
Dolby Digital Audio             French          192 kbps        2.0 / 48 kHz / 192 kbps / Dolby Surround
Dolby Digital Audio             German          192 kbps        2.0 / 48 kHz / 192 kbps / Dolby Surround
Dolby Digital Audio             Italian         192 kbps        2.0 / 48 kHz / 192 kbps / Dolby Surround
Dolby Digital Audio             Japanese        192 kbps        2.0 / 48 kHz / 192 kbps / Dolby Surround
Dolby Digital Audio             Russian         192 kbps        2.0 / 48 kHz / 192 kbps / Dolby Surround
Dolby Digital Audio             Spanish         192 kbps        2.0 / 48 kHz / 192 kbps / Dolby Surround
Dolby Digital Audio             Spanish         192 kbps        2.0 / 48 kHz / 192 kbps / Dolby Surround
SUBTITLES:
Codec                           Language        Bitrate         Description
-----                           --------        -------         -----------
Presentation Graphics           English         24,224 kbps
* Presentation Graphics         English         24,235 kbps
Presentation Graphics           English         29,234 kbps
Presentation Graphics           Arabic          13,880 kbps
Presentation Graphics           Chinese         22,059 kbps
Presentation Graphics           Chinese         21,593 kbps
Presentation Graphics           Czech           23,412 kbps
Presentation Graphics           Danish          25,543 kbps
Presentation Graphics           Dutch           25,531 kbps
Presentation Graphics           Finnish         26,397 kbps
Presentation Graphics           French          28,472 kbps
Presentation Graphics           German          26,411 kbps
Presentation Graphics           Greek           26,329 kbps
Presentation Graphics           Hebrew          21,025 kbps
Presentation Graphics           Hindi           20,774 kbps
Presentation Graphics           Hungarian       26,756 kbps
Presentation Graphics           Italian         26,578 kbps
Presentation Graphics           Japanese        26,486 kbps
Presentation Graphics           Korean          18,299 kbps
Presentation Graphics           Norwegian       25,236 kbps
Presentation Graphics           Polish          26,284 kbps
Presentation Graphics           Portuguese      25,539 kbps
Presentation Graphics           Russian         26,309 kbps
Presentation Graphics           Spanish         25,257 kbps
Presentation Graphics           Spanish         33,454 kbps
Presentation Graphics           Swedish         22,308 kbps
Presentation Graphics           Thai            26,882 kbps
Presentation Graphics           Japanese        1,807 kbps
FILES:
Name            Time In         Length          Size            Total Bitrate
----            -------         ------          ----            -------------
00001.M2TS      0:00:00.000     1:45:05.299     27 532 769 280  34 933
CHAPTERS:
Number          Time In         Length          Avg Video Rate  Max 1-Sec Rate  Max 1-Sec Time  Max 5-Sec Rate  Max 5-Sec Time  Max 10Sec Rate  Max 10Sec Time  Avg Frame Size  Max Frame Size  Max Frame Time
------          -------         ------          --------------  --------------  --------------  --------------  --------------  --------------  --------------  --------------  --------------  --------------
1               0:00:00.000     0:05:27.910     25 882 kbps     38 035 kbps     00:05:21.362    31 304 kbps     00:03:20.658    30 679 kbps     00:03:19.365    134 920 bytes   540 964 bytes   00:01:18.870
2               0:05:27.910     0:07:17.437     28 798 kbps     36 308 kbps     00:07:53.389    32 554 kbps     00:06:46.155    32 142 kbps     00:06:46.072    150 140 bytes   468 916 bytes   00:06:02.904
3               0:12:45.347     0:09:39.203     26 714 kbps     37 733 kbps     00:18:56.844    31 399 kbps     00:18:55.008    30 367 kbps     00:18:55.092    139 276 bytes   457 908 bytes   00:19:11.692
4               0:22:24.551     0:04:01.741     28 550 kbps     37 147 kbps     00:25:30.487    30 933 kbps     00:25:43.458    30 566 kbps     00:25:38.161    148 844 bytes   485 534 bytes   00:22:46.073
5               0:26:26.293     0:04:58.715     26 202 kbps     42 827 kbps     00:28:30.667    29 342 kbps     00:28:23.952    28 139 kbps     00:28:19.114    136 603 bytes   441 752 bytes   00:28:28.373
6               0:31:25.008     0:02:48.835     28 153 kbps     34 221 kbps     00:32:59.477    30 048 kbps     00:34:06.919    29 415 kbps     00:34:01.831    146 779 bytes   408 798 bytes   00:31:26.676
7               0:34:13.843     0:07:21.774     27 826 kbps     34 570 kbps     00:39:45.007    30 913 kbps     00:40:02.900    30 565 kbps     00:39:57.978    145 071 bytes   497 737 bytes   00:37:29.622
8               0:41:35.618     0:03:16.195     28 119 kbps     33 682 kbps     00:43:15.426    29 595 kbps     00:44:16.445    29 152 kbps     00:44:11.940    146 599 bytes   406 436 bytes   00:42:11.779
9               0:44:51.814     0:08:27.423     28 358 kbps     37 776 kbps     00:53:03.638    31 381 kbps     00:45:49.663    30 594 kbps     00:46:20.527    147 843 bytes   448 251 bytes   00:53:03.763
10              0:53:19.237     0:05:50.641     29 971 kbps     36 396 kbps     00:56:52.408    32 704 kbps     00:56:51.741    31 566 kbps     00:56:51.699    156 256 bytes   447 995 bytes   00:56:53.368
11              0:59:09.879     0:04:51.708     28 128 kbps     34 216 kbps     01:01:48.454    30 984 kbps     01:01:46.911    30 299 kbps     01:01:46.911    146 647 bytes   497 511 bytes   01:03:47.865
12              1:04:01.587     0:08:34.972     28 993 kbps     40 986 kbps     01:11:08.555    35 390 kbps     01:09:44.180    34 081 kbps     01:09:42.970    151 154 bytes   578 636 bytes   01:11:49.638
13              1:12:36.560     0:08:21.751     29 958 kbps     37 600 kbps     01:20:52.848    32 135 kbps     01:15:24.436    31 472 kbps     01:15:25.479    156 185 bytes   500 349 bytes   01:19:13.915
14              1:20:58.311     0:07:21.482     28 934 kbps     37 417 kbps     01:26:51.998    32 282 kbps     01:26:35.356    31 526 kbps     01:26:30.393    150 851 bytes   515 671 bytes   01:25:56.734
15              1:28:19.794     0:05:11.019     28 911 kbps     35 240 kbps     01:28:23.798    32 491 kbps     01:28:22.839    31 720 kbps     01:28:22.547    150 728 bytes   464 510 bytes   01:28:43.151
16              1:33:30.813     0:11:34.485     25 166 kbps     36 806 kbps     01:34:42.593    31 526 kbps     01:35:08.619    30 729 kbps     01:35:02.113    131 211 bytes   490 530 bytes   01:44:11.286
STREAM DIAGNOSTICS:
File            PID             Type            Codec           Language                Seconds                 Bitrate                 Bytes           Packets
----            ---             ----            -----           --------                --------------          --------------          -------------   -----
00001.M2TS      4113 (0x1011)   0x1B            AVC                                     6305,216                27 938                  22 019 628 609  119 760 653
00001.M2TS      4352 (0x1100)   0x86            DTS-HD MA       eng (English)           6305,216                2 909                   2 292 939 384   13 441 353
00001.M2TS      4353 (0x1101)   0x81            AC3             fra (French)            6305,216                192                     151 327 488     985 205
00001.M2TS      4354 (0x1102)   0x81            AC3             deu (German)            6305,216                192                     151 327 488     985 205
00001.M2TS      4355 (0x1103)   0x81            AC3             ita (Italian)           6305,216                192                     151 327 488     985 205
00001.M2TS      4356 (0x1104)   0x81            AC3             jpn (Japanese)          6305,216                192                     151 327 488     985 205
00001.M2TS      4357 (0x1105)   0x81            AC3             rus (Russian)           6305,216                192                     151 327 488     985 205
00001.M2TS      4358 (0x1106)   0x81            AC3             spa (Spanish)           6305,216                192                     151 327 488     985 205
00001.M2TS      4359 (0x1107)   0x81            AC3             spa (Spanish)           6305,216                192                     151 327 488     985 205
00001.M2TS      4608 (0x1200)   0x90            PGS             eng (English)           6305,216                24                      19 092 431      108 702
00001.M2TS      4609 (0x1201)   0x90            PGS             eng (English)           6305,216                24                      19 101 345      108 750
00001.M2TS      4610 (0x1202)   0x90            PGS             eng (English)           6305,216                29                      23 041 071      134 339
00001.M2TS      4611 (0x1203)   0x90            PGS             ara (Arabic)            6305,216                14                      10 939 505      64 401
00001.M2TS      4612 (0x1204)   0x90            PGS             zho (Chinese)           6305,216                22                      17 386 217      99 584
00001.M2TS      4613 (0x1205)   0x90            PGS             zho (Chinese)           6305,216                22                      17 018 491      97 603
00001.M2TS      4614 (0x1206)   0x90            PGS             ces (Czech)             6305,216                23                      18 452 390      105 247
00001.M2TS      4615 (0x1207)   0x90            PGS             dan (Danish)            6305,216                26                      20 131 988      114 382
00001.M2TS      4616 (0x1208)   0x90            PGS             nld (Dutch)             6305,216                26                      20 122 380      114 339
00001.M2TS      4617 (0x1209)   0x90            PGS             fin (Finnish)           6305,216                26                      20 804 789      118 056
00001.M2TS      4618 (0x120A)   0x90            PGS             fra (French)            6305,216                28                      22 440 385      130 644
00001.M2TS      4619 (0x120B)   0x90            PGS             deu (German)            6305,216                26                      20 816 476      118 114
00001.M2TS      4620 (0x120C)   0x90            PGS             ell (Greek)             6305,216                26                      20 751 368      117 783
00001.M2TS      4621 (0x120D)   0x90            PGS             heb (Hebrew)            6305,216                21                      16 570 770      95 813
00001.M2TS      4622 (0x120E)   0x90            PGS             hin (Hindi)             6305,216                21                      16 373 445      94 021
00001.M2TS      4623 (0x120F)   0x90            PGS             hun (Hungarian)         6305,216                27                      21 087 917      119 707
00001.M2TS      4624 (0x1210)   0x90            PGS             ita (Italian)           6305,216                27                      20 947 963      118 872
00001.M2TS      4625 (0x1211)   0x90            PGS             jpn (Japanese)          6305,216                26                      20 875 214      121 623
00001.M2TS      4626 (0x1212)   0x90            PGS             kor (Korean)            6305,216                18                      14 422 483      83 900
00001.M2TS      4627 (0x1213)   0x90            PGS             nor (Norwegian)         6305,216                25                      19 890 326      113 198
00001.M2TS      4628 (0x1214)   0x90            PGS             pol (Polish)            6305,216                26                      20 716 301      117 645
00001.M2TS      4629 (0x1215)   0x90            PGS             por (Portuguese)        6305,216                26                      20 128 607      114 395
00001.M2TS      4630 (0x1216)   0x90            PGS             rus (Russian)           6305,216                26                      20 736 111      117 847
00001.M2TS      4631 (0x1217)   0x90            PGS             spa (Spanish)           6305,216                25                      19 906 512      113 170
00001.M2TS      4632 (0x1218)   0x90            PGS             spa (Spanish)           6305,216                33                      26 367 408      151 786
00001.M2TS      4633 (0x1219)   0x90            PGS             swe (Swedish)           6305,216                22                      17 582 010      100 510
00001.M2TS      4634 (0x121A)   0x90            PGS             tha (Thai)              6305,216                27                      21 187 552      120 383
00001.M2TS      4635 (0x121B)   0x90            PGS             jpn (Japanese)          6305,216                2                       1 423 986       8 228
QUICK SUMMARY:
Disc Title: Sleepless in Seattle 1993 1080p Blu-ray AVC DTS-HD MA 5.1-PCH
Disc Size: 29 050 889 160 bytes
Protection: AACS
BD-Java: Yes
Playlist: 00001.MPLS
Size: 27 532 769 280 bytes
Length: 1:45:05.299
Total Bitrate: 34,93 Mbps
Video: MPEG-4 AVC Video / 27938 kbps / 1080p / 23,976 fps / 16:9 / High Profile 4.1
Audio: English / DTS-HD Master Audio / 5.1 / 48 kHz / 2909 kbps / 24-bit (DTS Core: 5.1 / 48 kHz / 1509 kbps / 24-bit)
Audio: French / Dolby Digital Audio / 2.0 / 48 kHz / 192 kbps / Dolby Surround
Audio: German / Dolby Digital Audio / 2.0 / 48 kHz / 192 kbps / Dolby Surround
Audio: Italian / Dolby Digital Audio / 2.0 / 48 kHz / 192 kbps / Dolby Surround
Audio: Japanese / Dolby Digital Audio / 2.0 / 48 kHz / 192 kbps / Dolby Surround
Audio: Russian / Dolby Digital Audio / 2.0 / 48 kHz / 192 kbps / Dolby Surround
Audio: Spanish / Dolby Digital Audio / 2.0 / 48 kHz / 192 kbps / Dolby Surround
Audio: Spanish / Dolby Digital Audio / 2.0 / 48 kHz / 192 kbps / Dolby Surround
Subtitle: English / 24,224 kbps
* Subtitle: English / 24,235 kbps
Subtitle: English / 29,234 kbps
Subtitle: Arabic / 13,880 kbps
Subtitle: Chinese / 22,059 kbps
Subtitle: Chinese / 21,593 kbps
Subtitle: Czech / 23,412 kbps
Subtitle: Danish / 25,543 kbps
Subtitle: Dutch / 25,531 kbps
Subtitle: Finnish / 26,397 kbps
Subtitle: French / 28,472 kbps
Subtitle: German / 26,411 kbps
Subtitle: Greek / 26,329 kbps
Subtitle: Hebrew / 21,025 kbps
Subtitle: Hindi / 20,774 kbps
Subtitle: Hungarian / 26,756 kbps
Subtitle: Italian / 26,578 kbps
Subtitle: Japanese / 26,486 kbps
Subtitle: Korean / 18,299 kbps
Subtitle: Norwegian / 25,236 kbps
Subtitle: Polish / 26,284 kbps
Subtitle: Portuguese / 25,539 kbps
Subtitle: Russian / 26,309 kbps
Subtitle: Spanish / 25,257 kbps
Subtitle: Spanish / 33,454 kbps
Subtitle: Swedish / 22,308 kbps
Subtitle: Thai / 26,882 kbps
Subtitle: Japanese / 1,807 kbps
********************
PLAYLIST: 00002.MPLS
********************
Код:
Total   Video
Title                                                           Codec   Length  Movie Size      Disc Size       Bitrate Bitrate Main Audio Track                          Secondary Audio Track
-----                                                           ------  ------- --------------  --------------  ------- ------- ------------------                        ---------------------
00002.MPLS                                                      AVC     1:45:05 27 532 769 280  29 050 889 160  34,93   27,94   DTS-HD Master 5.1 2909Kbps (48kHz/24-bit)
Код:
DISC INFO:
Disc Title:     Sleepless in Seattle 1993 1080p Blu-ray AVC DTS-HD MA 5.1-PCH
Disc Size:      29 050 889 160 bytes
Protection:     AACS
BD-Java:        Yes
BDInfo:         0.5.8
PLAYLIST REPORT:
Name:                   00002.MPLS
Length:                 1:45:05.299 (h:m:s.ms)
Size:                   27 532 769 280 bytes
Total Bitrate:          34,93 Mbps
(*) Indicates included stream hidden by this playlist.
VIDEO:
Codec                   Bitrate             Description
-----                   -------             -----------
MPEG-4 AVC Video        27938 kbps          1080p / 23,976 fps / 16:9 / High Profile 4.1
AUDIO:
Codec                           Language        Bitrate         Description
-----                           --------        -------         -----------
DTS-HD Master Audio             English         2909 kbps       5.1 / 48 kHz / 2909 kbps / 24-bit (DTS Core: 5.1 / 48 kHz / 1509 kbps / 24-bit)
Dolby Digital Audio             French          192 kbps        2.0 / 48 kHz / 192 kbps / Dolby Surround
Dolby Digital Audio             German          192 kbps        2.0 / 48 kHz / 192 kbps / Dolby Surround
Dolby Digital Audio             Italian         192 kbps        2.0 / 48 kHz / 192 kbps / Dolby Surround
Dolby Digital Audio             Japanese        192 kbps        2.0 / 48 kHz / 192 kbps / Dolby Surround
Dolby Digital Audio             Russian         192 kbps        2.0 / 48 kHz / 192 kbps / Dolby Surround
Dolby Digital Audio             Spanish         192 kbps        2.0 / 48 kHz / 192 kbps / Dolby Surround
Dolby Digital Audio             Spanish         192 kbps        2.0 / 48 kHz / 192 kbps / Dolby Surround
SUBTITLES:
Codec                           Language        Bitrate         Description
-----                           --------        -------         -----------
* Presentation Graphics         English         24,224 kbps
Presentation Graphics           English         24,235 kbps
Presentation Graphics           English         29,234 kbps
Presentation Graphics           Arabic          13,880 kbps
Presentation Graphics           Chinese         22,059 kbps
Presentation Graphics           Chinese         21,593 kbps
Presentation Graphics           Czech           23,412 kbps
Presentation Graphics           Danish          25,543 kbps
Presentation Graphics           Dutch           25,531 kbps
Presentation Graphics           Finnish         26,397 kbps
Presentation Graphics           French          28,472 kbps
Presentation Graphics           German          26,411 kbps
Presentation Graphics           Greek           26,329 kbps
Presentation Graphics           Hebrew          21,025 kbps
Presentation Graphics           Hindi           20,774 kbps
Presentation Graphics           Hungarian       26,756 kbps
Presentation Graphics           Italian         26,578 kbps
Presentation Graphics           Japanese        26,486 kbps
Presentation Graphics           Korean          18,299 kbps
Presentation Graphics           Norwegian       25,236 kbps
Presentation Graphics           Polish          26,284 kbps
Presentation Graphics           Portuguese      25,539 kbps
Presentation Graphics           Russian         26,309 kbps
Presentation Graphics           Spanish         25,257 kbps
Presentation Graphics           Spanish         33,454 kbps
Presentation Graphics           Swedish         22,308 kbps
Presentation Graphics           Thai            26,882 kbps
Presentation Graphics           Japanese        1,807 kbps
FILES:
Name            Time In         Length          Size            Total Bitrate
----            -------         ------          ----            -------------
00001.M2TS      0:00:00.000     1:45:05.299     27 532 769 280  34 933
CHAPTERS:
Number          Time In         Length          Avg Video Rate  Max 1-Sec Rate  Max 1-Sec Time  Max 5-Sec Rate  Max 5-Sec Time  Max 10Sec Rate  Max 10Sec Time  Avg Frame Size  Max Frame Size  Max Frame Time
------          -------         ------          --------------  --------------  --------------  --------------  --------------  --------------  --------------  --------------  --------------  --------------
1               0:00:00.000     0:05:27.910     25 882 kbps     38 035 kbps     00:05:21.362    31 304 kbps     00:03:20.658    30 679 kbps     00:03:19.365    134 920 bytes   540 964 bytes   00:01:18.870
2               0:05:27.910     0:07:17.437     28 798 kbps     36 308 kbps     00:07:53.389    32 554 kbps     00:06:46.155    32 142 kbps     00:06:46.072    150 140 bytes   468 916 bytes   00:06:02.904
3               0:12:45.347     0:09:39.203     26 714 kbps     37 733 kbps     00:18:56.844    31 399 kbps     00:18:55.008    30 367 kbps     00:18:55.092    139 276 bytes   457 908 bytes   00:19:11.692
4               0:22:24.551     0:04:01.741     28 550 kbps     37 147 kbps     00:25:30.487    30 933 kbps     00:25:43.458    30 566 kbps     00:25:38.161    148 844 bytes   485 534 bytes   00:22:46.073
5               0:26:26.293     0:04:58.715     26 202 kbps     42 827 kbps     00:28:30.667    29 342 kbps     00:28:23.952    28 139 kbps     00:28:19.114    136 603 bytes   441 752 bytes   00:28:28.373
6               0:31:25.008     0:02:48.835     28 153 kbps     34 221 kbps     00:32:59.477    30 048 kbps     00:34:06.919    29 415 kbps     00:34:01.831    146 779 bytes   408 798 bytes   00:31:26.676
7               0:34:13.843     0:07:21.774     27 826 kbps     34 570 kbps     00:39:45.007    30 913 kbps     00:40:02.900    30 565 kbps     00:39:57.978    145 071 bytes   497 737 bytes   00:37:29.622
8               0:41:35.618     0:03:16.195     28 119 kbps     33 682 kbps     00:43:15.426    29 595 kbps     00:44:16.445    29 152 kbps     00:44:11.940    146 599 bytes   406 436 bytes   00:42:11.779
9               0:44:51.814     0:08:27.423     28 358 kbps     37 776 kbps     00:53:03.638    31 381 kbps     00:45:49.663    30 594 kbps     00:46:20.527    147 843 bytes   448 251 bytes   00:53:03.763
10              0:53:19.237     0:05:50.641     29 971 kbps     36 396 kbps     00:56:52.408    32 704 kbps     00:56:51.741    31 566 kbps     00:56:51.699    156 256 bytes   447 995 bytes   00:56:53.368
11              0:59:09.879     0:04:51.708     28 128 kbps     34 216 kbps     01:01:48.454    30 984 kbps     01:01:46.911    30 299 kbps     01:01:46.911    146 647 bytes   497 511 bytes   01:03:47.865
12              1:04:01.587     0:08:34.972     28 993 kbps     40 986 kbps     01:11:08.555    35 390 kbps     01:09:44.180    34 081 kbps     01:09:42.970    151 154 bytes   578 636 bytes   01:11:49.638
13              1:12:36.560     0:08:21.751     29 958 kbps     37 600 kbps     01:20:52.848    32 135 kbps     01:15:24.436    31 472 kbps     01:15:25.479    156 185 bytes   500 349 bytes   01:19:13.915
14              1:20:58.311     0:07:21.482     28 934 kbps     37 417 kbps     01:26:51.998    32 282 kbps     01:26:35.356    31 526 kbps     01:26:30.393    150 851 bytes   515 671 bytes   01:25:56.734
15              1:28:19.794     0:05:11.019     28 911 kbps     35 240 kbps     01:28:23.798    32 491 kbps     01:28:22.839    31 720 kbps     01:28:22.547    150 728 bytes   464 510 bytes   01:28:43.151
16              1:33:30.813     0:11:34.485     25 166 kbps     36 806 kbps     01:34:42.593    31 526 kbps     01:35:08.619    30 729 kbps     01:35:02.113    131 211 bytes   490 530 bytes   01:44:11.286
STREAM DIAGNOSTICS:
File            PID             Type            Codec           Language                Seconds                 Bitrate                 Bytes           Packets
----            ---             ----            -----           --------                --------------          --------------          -------------   -----
00001.M2TS      4113 (0x1011)   0x1B            AVC                                     6305,216                27 938                  22 019 628 609  119 760 653
00001.M2TS      4352 (0x1100)   0x86            DTS-HD MA       eng (English)           6305,216                2 909                   2 292 939 384   13 441 353
00001.M2TS      4353 (0x1101)   0x81            AC3             fra (French)            6305,216                192                     151 327 488     985 205
00001.M2TS      4354 (0x1102)   0x81            AC3             deu (German)            6305,216                192                     151 327 488     985 205
00001.M2TS      4355 (0x1103)   0x81            AC3             ita (Italian)           6305,216                192                     151 327 488     985 205
00001.M2TS      4356 (0x1104)   0x81            AC3             jpn (Japanese)          6305,216                192                     151 327 488     985 205
00001.M2TS      4357 (0x1105)   0x81            AC3             rus (Russian)           6305,216                192                     151 327 488     985 205
00001.M2TS      4358 (0x1106)   0x81            AC3             spa (Spanish)           6305,216                192                     151 327 488     985 205
00001.M2TS      4359 (0x1107)   0x81            AC3             spa (Spanish)           6305,216                192                     151 327 488     985 205
00001.M2TS      4608 (0x1200)   0x90            PGS             eng (English)           6305,216                24                      19 092 431      108 702
00001.M2TS      4609 (0x1201)   0x90            PGS             eng (English)           6305,216                24                      19 101 345      108 750
00001.M2TS      4610 (0x1202)   0x90            PGS             eng (English)           6305,216                29                      23 041 071      134 339
00001.M2TS      4611 (0x1203)   0x90            PGS             ara (Arabic)            6305,216                14                      10 939 505      64 401
00001.M2TS      4612 (0x1204)   0x90            PGS             zho (Chinese)           6305,216                22                      17 386 217      99 584
00001.M2TS      4613 (0x1205)   0x90            PGS             zho (Chinese)           6305,216                22                      17 018 491      97 603
00001.M2TS      4614 (0x1206)   0x90            PGS             ces (Czech)             6305,216                23                      18 452 390      105 247
00001.M2TS      4615 (0x1207)   0x90            PGS             dan (Danish)            6305,216                26                      20 131 988      114 382
00001.M2TS      4616 (0x1208)   0x90            PGS             nld (Dutch)             6305,216                26                      20 122 380      114 339
00001.M2TS      4617 (0x1209)   0x90            PGS             fin (Finnish)           6305,216                26                      20 804 789      118 056
00001.M2TS      4618 (0x120A)   0x90            PGS             fra (French)            6305,216                28                      22 440 385      130 644
00001.M2TS      4619 (0x120B)   0x90            PGS             deu (German)            6305,216                26                      20 816 476      118 114
00001.M2TS      4620 (0x120C)   0x90            PGS             ell (Greek)             6305,216                26                      20 751 368      117 783
00001.M2TS      4621 (0x120D)   0x90            PGS             heb (Hebrew)            6305,216                21                      16 570 770      95 813
00001.M2TS      4622 (0x120E)   0x90            PGS             hin (Hindi)             6305,216                21                      16 373 445      94 021
00001.M2TS      4623 (0x120F)   0x90            PGS             hun (Hungarian)         6305,216                27                      21 087 917      119 707
00001.M2TS      4624 (0x1210)   0x90            PGS             ita (Italian)           6305,216                27                      20 947 963      118 872
00001.M2TS      4625 (0x1211)   0x90            PGS             jpn (Japanese)          6305,216                26                      20 875 214      121 623
00001.M2TS      4626 (0x1212)   0x90            PGS             kor (Korean)            6305,216                18                      14 422 483      83 900
00001.M2TS      4627 (0x1213)   0x90            PGS             nor (Norwegian)         6305,216                25                      19 890 326      113 198
00001.M2TS      4628 (0x1214)   0x90            PGS             pol (Polish)            6305,216                26                      20 716 301      117 645
00001.M2TS      4629 (0x1215)   0x90            PGS             por (Portuguese)        6305,216                26                      20 128 607      114 395
00001.M2TS      4630 (0x1216)   0x90            PGS             rus (Russian)           6305,216                26                      20 736 111      117 847
00001.M2TS      4631 (0x1217)   0x90            PGS             spa (Spanish)           6305,216                25                      19 906 512      113 170
00001.M2TS      4632 (0x1218)   0x90            PGS             spa (Spanish)           6305,216                33                      26 367 408      151 786
00001.M2TS      4633 (0x1219)   0x90            PGS             swe (Swedish)           6305,216                22                      17 582 010      100 510
00001.M2TS      4634 (0x121A)   0x90            PGS             tha (Thai)              6305,216                27                      21 187 552      120 383
00001.M2TS      4635 (0x121B)   0x90            PGS             jpn (Japanese)          6305,216                2                       1 423 986       8 228
QUICK SUMMARY:
Disc Title: Sleepless in Seattle 1993 1080p Blu-ray AVC DTS-HD MA 5.1-PCH
Disc Size: 29 050 889 160 bytes
Protection: AACS
BD-Java: Yes
Playlist: 00002.MPLS
Size: 27 532 769 280 bytes
Length: 1:45:05.299
Total Bitrate: 34,93 Mbps
Video: MPEG-4 AVC Video / 27938 kbps / 1080p / 23,976 fps / 16:9 / High Profile 4.1
Audio: English / DTS-HD Master Audio / 5.1 / 48 kHz / 2909 kbps / 24-bit (DTS Core: 5.1 / 48 kHz / 1509 kbps / 24-bit)
Audio: French / Dolby Digital Audio / 2.0 / 48 kHz / 192 kbps / Dolby Surround
Audio: German / Dolby Digital Audio / 2.0 / 48 kHz / 192 kbps / Dolby Surround
Audio: Italian / Dolby Digital Audio / 2.0 / 48 kHz / 192 kbps / Dolby Surround
Audio: Japanese / Dolby Digital Audio / 2.0 / 48 kHz / 192 kbps / Dolby Surround
Audio: Russian / Dolby Digital Audio / 2.0 / 48 kHz / 192 kbps / Dolby Surround
Audio: Spanish / Dolby Digital Audio / 2.0 / 48 kHz / 192 kbps / Dolby Surround
Audio: Spanish / Dolby Digital Audio / 2.0 / 48 kHz / 192 kbps / Dolby Surround
* Subtitle: English / 24,224 kbps
Subtitle: English / 24,235 kbps
Subtitle: English / 29,234 kbps
Subtitle: Arabic / 13,880 kbps
Subtitle: Chinese / 22,059 kbps
Subtitle: Chinese / 21,593 kbps
Subtitle: Czech / 23,412 kbps
Subtitle: Danish / 25,543 kbps
Subtitle: Dutch / 25,531 kbps
Subtitle: Finnish / 26,397 kbps
Subtitle: French / 28,472 kbps
Subtitle: German / 26,411 kbps
Subtitle: Greek / 26,329 kbps
Subtitle: Hebrew / 21,025 kbps
Subtitle: Hindi / 20,774 kbps
Subtitle: Hungarian / 26,756 kbps
Subtitle: Italian / 26,578 kbps
Subtitle: Japanese / 26,486 kbps
Subtitle: Korean / 18,299 kbps
Subtitle: Norwegian / 25,236 kbps
Subtitle: Polish / 26,284 kbps
Subtitle: Portuguese / 25,539 kbps
Subtitle: Russian / 26,309 kbps
Subtitle: Spanish / 25,257 kbps
Subtitle: Spanish / 33,454 kbps
Subtitle: Swedish / 22,308 kbps
Subtitle: Thai / 26,882 kbps
Subtitle: Japanese / 1,807 kbps
********************
PLAYLIST: 00003.MPLS
********************
Код:
Total   Video
Title                                                           Codec   Length  Movie Size      Disc Size       Bitrate Bitrate Main Audio Track                          Secondary Audio Track
-----                                                           ------  ------- --------------  --------------  ------- ------- ------------------                        ---------------------
00003.MPLS                                                      AVC     1:45:05 27 532 769 280  29 050 889 160  34,93   27,94   DTS-HD Master 5.1 2909Kbps (48kHz/24-bit)
Код:
DISC INFO:
Disc Title:     Sleepless in Seattle 1993 1080p Blu-ray AVC DTS-HD MA 5.1-PCH
Disc Size:      29 050 889 160 bytes
Protection:     AACS
BD-Java:        Yes
BDInfo:         0.5.8
PLAYLIST REPORT:
Name:                   00003.MPLS
Length:                 1:45:05.299 (h:m:s.ms)
Size:                   27 532 769 280 bytes
Total Bitrate:          34,93 Mbps
VIDEO:
Codec                   Bitrate             Description
-----                   -------             -----------
MPEG-4 AVC Video        27938 kbps          1080p / 23,976 fps / 16:9 / High Profile 4.1
AUDIO:
Codec                           Language        Bitrate         Description
-----                           --------        -------         -----------
DTS-HD Master Audio             English         2909 kbps       5.1 / 48 kHz / 2909 kbps / 24-bit (DTS Core: 5.1 / 48 kHz / 1509 kbps / 24-bit)
Dolby Digital Audio             French          192 kbps        2.0 / 48 kHz / 192 kbps / Dolby Surround
Dolby Digital Audio             German          192 kbps        2.0 / 48 kHz / 192 kbps / Dolby Surround
Dolby Digital Audio             Italian         192 kbps        2.0 / 48 kHz / 192 kbps / Dolby Surround
Dolby Digital Audio             Japanese        192 kbps        2.0 / 48 kHz / 192 kbps / Dolby Surround
Dolby Digital Audio             Russian         192 kbps        2.0 / 48 kHz / 192 kbps / Dolby Surround
Dolby Digital Audio             Spanish         192 kbps        2.0 / 48 kHz / 192 kbps / Dolby Surround
Dolby Digital Audio             Spanish         192 kbps        2.0 / 48 kHz / 192 kbps / Dolby Surround
SUBTITLES:
Codec                           Language        Bitrate         Description
-----                           --------        -------         -----------
Presentation Graphics           English         24,224 kbps
Presentation Graphics           English         24,235 kbps
Presentation Graphics           English         29,234 kbps
Presentation Graphics           Arabic          13,880 kbps
Presentation Graphics           Chinese         22,059 kbps
Presentation Graphics           Chinese         21,593 kbps
Presentation Graphics           Czech           23,412 kbps
Presentation Graphics           Danish          25,543 kbps
Presentation Graphics           Dutch           25,531 kbps
Presentation Graphics           Finnish         26,397 kbps
Presentation Graphics           French          28,472 kbps
Presentation Graphics           German          26,411 kbps
Presentation Graphics           Greek           26,329 kbps
Presentation Graphics           Hebrew          21,025 kbps
Presentation Graphics           Hindi           20,774 kbps
Presentation Graphics           Hungarian       26,756 kbps
Presentation Graphics           Italian         26,578 kbps
Presentation Graphics           Japanese        26,486 kbps
Presentation Graphics           Korean          18,299 kbps
Presentation Graphics           Norwegian       25,236 kbps
Presentation Graphics           Polish          26,284 kbps
Presentation Graphics           Portuguese      25,539 kbps
Presentation Graphics           Russian         26,309 kbps
Presentation Graphics           Spanish         25,257 kbps
Presentation Graphics           Spanish         33,454 kbps
Presentation Graphics           Swedish         22,308 kbps
Presentation Graphics           Thai            26,882 kbps
Presentation Graphics           Japanese        1,807 kbps
FILES:
Name            Time In         Length          Size            Total Bitrate
----            -------         ------          ----            -------------
00001.M2TS      0:00:00.000     1:45:05.299     27 532 769 280  34 933
CHAPTERS:
Number          Time In         Length          Avg Video Rate  Max 1-Sec Rate  Max 1-Sec Time  Max 5-Sec Rate  Max 5-Sec Time  Max 10Sec Rate  Max 10Sec Time  Avg Frame Size  Max Frame Size  Max Frame Time
------          -------         ------          --------------  --------------  --------------  --------------  --------------  --------------  --------------  --------------  --------------  --------------
1               0:00:00.000     0:05:27.910     25 882 kbps     38 035 kbps     00:05:21.362    31 304 kbps     00:03:20.658    30 679 kbps     00:03:19.365    134 920 bytes   540 964 bytes   00:01:18.870
2               0:05:27.910     0:07:17.437     28 798 kbps     36 308 kbps     00:07:53.389    32 554 kbps     00:06:46.155    32 142 kbps     00:06:46.072    150 140 bytes   468 916 bytes   00:06:02.904
3               0:12:45.347     0:09:39.203     26 714 kbps     37 733 kbps     00:18:56.844    31 399 kbps     00:18:55.008    30 367 kbps     00:18:55.092    139 276 bytes   457 908 bytes   00:19:11.692
4               0:22:24.551     0:04:01.741     28 550 kbps     37 147 kbps     00:25:30.487    30 933 kbps     00:25:43.458    30 566 kbps     00:25:38.161    148 844 bytes   485 534 bytes   00:22:46.073
5               0:26:26.293     0:04:58.715     26 202 kbps     42 827 kbps     00:28:30.667    29 342 kbps     00:28:23.952    28 139 kbps     00:28:19.114    136 603 bytes   441 752 bytes   00:28:28.373
6               0:31:25.008     0:02:48.835     28 153 kbps     34 221 kbps     00:32:59.477    30 048 kbps     00:34:06.919    29 415 kbps     00:34:01.831    146 779 bytes   408 798 bytes   00:31:26.676
7               0:34:13.843     0:07:21.774     27 826 kbps     34 570 kbps     00:39:45.007    30 913 kbps     00:40:02.900    30 565 kbps     00:39:57.978    145 071 bytes   497 737 bytes   00:37:29.622
8               0:41:35.618     0:03:16.195     28 119 kbps     33 682 kbps     00:43:15.426    29 595 kbps     00:44:16.445    29 152 kbps     00:44:11.940    146 599 bytes   406 436 bytes   00:42:11.779
9               0:44:51.814     0:08:27.423     28 358 kbps     37 776 kbps     00:53:03.638    31 381 kbps     00:45:49.663    30 594 kbps     00:46:20.527    147 843 bytes   448 251 bytes   00:53:03.763
10              0:53:19.237     0:05:50.641     29 971 kbps     36 396 kbps     00:56:52.408    32 704 kbps     00:56:51.741    31 566 kbps     00:56:51.699    156 256 bytes   447 995 bytes   00:56:53.368
11              0:59:09.879     0:04:51.708     28 128 kbps     34 216 kbps     01:01:48.454    30 984 kbps     01:01:46.911    30 299 kbps     01:01:46.911    146 647 bytes   497 511 bytes   01:03:47.865
12              1:04:01.587     0:08:34.972     28 993 kbps     40 986 kbps     01:11:08.555    35 390 kbps     01:09:44.180    34 081 kbps     01:09:42.970    151 154 bytes   578 636 bytes   01:11:49.638
13              1:12:36.560     0:08:21.751     29 958 kbps     37 600 kbps     01:20:52.848    32 135 kbps     01:15:24.436    31 472 kbps     01:15:25.479    156 185 bytes   500 349 bytes   01:19:13.915
14              1:20:58.311     0:07:21.482     28 934 kbps     37 417 kbps     01:26:51.998    32 282 kbps     01:26:35.356    31 526 kbps     01:26:30.393    150 851 bytes   515 671 bytes   01:25:56.734
15              1:28:19.794     0:05:11.019     28 911 kbps     35 240 kbps     01:28:23.798    32 491 kbps     01:28:22.839    31 720 kbps     01:28:22.547    150 728 bytes   464 510 bytes   01:28:43.151
16              1:33:30.813     0:11:34.485     25 166 kbps     36 806 kbps     01:34:42.593    31 526 kbps     01:35:08.619    30 729 kbps     01:35:02.113    131 211 bytes   490 530 bytes   01:44:11.286
STREAM DIAGNOSTICS:
File            PID             Type            Codec           Language                Seconds                 Bitrate                 Bytes           Packets
----            ---             ----            -----           --------                --------------          --------------          -------------   -----
00001.M2TS      4113 (0x1011)   0x1B            AVC                                     6305,216                27 938                  22 019 628 609  119 760 653
00001.M2TS      4352 (0x1100)   0x86            DTS-HD MA       eng (English)           6305,216                2 909                   2 292 939 384   13 441 353
00001.M2TS      4353 (0x1101)   0x81            AC3             fra (French)            6305,216                192                     151 327 488     985 205
00001.M2TS      4354 (0x1102)   0x81            AC3             deu (German)            6305,216                192                     151 327 488     985 205
00001.M2TS      4355 (0x1103)   0x81            AC3             ita (Italian)           6305,216                192                     151 327 488     985 205
00001.M2TS      4356 (0x1104)   0x81            AC3             jpn (Japanese)          6305,216                192                     151 327 488     985 205
00001.M2TS      4357 (0x1105)   0x81            AC3             rus (Russian)           6305,216                192                     151 327 488     985 205
00001.M2TS      4358 (0x1106)   0x81            AC3             spa (Spanish)           6305,216                192                     151 327 488     985 205
00001.M2TS      4359 (0x1107)   0x81            AC3             spa (Spanish)           6305,216                192                     151 327 488     985 205
00001.M2TS      4608 (0x1200)   0x90            PGS             eng (English)           6305,216                24                      19 092 431      108 702
00001.M2TS      4609 (0x1201)   0x90            PGS             eng (English)           6305,216                24                      19 101 345      108 750
00001.M2TS      4610 (0x1202)   0x90            PGS             eng (English)           6305,216                29                      23 041 071      134 339
00001.M2TS      4611 (0x1203)   0x90            PGS             ara (Arabic)            6305,216                14                      10 939 505      64 401
00001.M2TS      4612 (0x1204)   0x90            PGS             zho (Chinese)           6305,216                22                      17 386 217      99 584
00001.M2TS      4613 (0x1205)   0x90            PGS             zho (Chinese)           6305,216                22                      17 018 491      97 603
00001.M2TS      4614 (0x1206)   0x90            PGS             ces (Czech)             6305,216                23                      18 452 390      105 247
00001.M2TS      4615 (0x1207)   0x90            PGS             dan (Danish)            6305,216                26                      20 131 988      114 382
00001.M2TS      4616 (0x1208)   0x90            PGS             nld (Dutch)             6305,216                26                      20 122 380      114 339
00001.M2TS      4617 (0x1209)   0x90            PGS             fin (Finnish)           6305,216                26                      20 804 789      118 056
00001.M2TS      4618 (0x120A)   0x90            PGS             fra (French)            6305,216                28                      22 440 385      130 644
00001.M2TS      4619 (0x120B)   0x90            PGS             deu (German)            6305,216                26                      20 816 476      118 114
00001.M2TS      4620 (0x120C)   0x90            PGS             ell (Greek)             6305,216                26                      20 751 368      117 783
00001.M2TS      4621 (0x120D)   0x90            PGS             heb (Hebrew)            6305,216                21                      16 570 770      95 813
00001.M2TS      4622 (0x120E)   0x90            PGS             hin (Hindi)             6305,216                21                      16 373 445      94 021
00001.M2TS      4623 (0x120F)   0x90            PGS             hun (Hungarian)         6305,216                27                      21 087 917      119 707
00001.M2TS      4624 (0x1210)   0x90            PGS             ita (Italian)           6305,216                27                      20 947 963      118 872
00001.M2TS      4625 (0x1211)   0x90            PGS             jpn (Japanese)          6305,216                26                      20 875 214      121 623
00001.M2TS      4626 (0x1212)   0x90            PGS             kor (Korean)            6305,216                18                      14 422 483      83 900
00001.M2TS      4627 (0x1213)   0x90            PGS             nor (Norwegian)         6305,216                25                      19 890 326      113 198
00001.M2TS      4628 (0x1214)   0x90            PGS             pol (Polish)            6305,216                26                      20 716 301      117 645
00001.M2TS      4629 (0x1215)   0x90            PGS             por (Portuguese)        6305,216                26                      20 128 607      114 395
00001.M2TS      4630 (0x1216)   0x90            PGS             rus (Russian)           6305,216                26                      20 736 111      117 847
00001.M2TS      4631 (0x1217)   0x90            PGS             spa (Spanish)           6305,216                25                      19 906 512      113 170
00001.M2TS      4632 (0x1218)   0x90            PGS             spa (Spanish)           6305,216                33                      26 367 408      151 786
00001.M2TS      4633 (0x1219)   0x90            PGS             swe (Swedish)           6305,216                22                      17 582 010      100 510
00001.M2TS      4634 (0x121A)   0x90            PGS             tha (Thai)              6305,216                27                      21 187 552      120 383
00001.M2TS      4635 (0x121B)   0x90            PGS             jpn (Japanese)          6305,216                2                       1 423 986       8 228
QUICK SUMMARY:
Disc Title: Sleepless in Seattle 1993 1080p Blu-ray AVC DTS-HD MA 5.1-PCH
Disc Size: 29 050 889 160 bytes
Protection: AACS
BD-Java: Yes
Playlist: 00003.MPLS
Size: 27 532 769 280 bytes
Length: 1:45:05.299
Total Bitrate: 34,93 Mbps
Video: MPEG-4 AVC Video / 27938 kbps / 1080p / 23,976 fps / 16:9 / High Profile 4.1
Audio: English / DTS-HD Master Audio / 5.1 / 48 kHz / 2909 kbps / 24-bit (DTS Core: 5.1 / 48 kHz / 1509 kbps / 24-bit)
Audio: French / Dolby Digital Audio / 2.0 / 48 kHz / 192 kbps / Dolby Surround
Audio: German / Dolby Digital Audio / 2.0 / 48 kHz / 192 kbps / Dolby Surround
Audio: Italian / Dolby Digital Audio / 2.0 / 48 kHz / 192 kbps / Dolby Surround
Audio: Japanese / Dolby Digital Audio / 2.0 / 48 kHz / 192 kbps / Dolby Surround
Audio: Russian / Dolby Digital Audio / 2.0 / 48 kHz / 192 kbps / Dolby Surround
Audio: Spanish / Dolby Digital Audio / 2.0 / 48 kHz / 192 kbps / Dolby Surround
Audio: Spanish / Dolby Digital Audio / 2.0 / 48 kHz / 192 kbps / Dolby Surround
Subtitle: English / 24,224 kbps
Subtitle: English / 24,235 kbps
Subtitle: English / 29,234 kbps
Subtitle: Arabic / 13,880 kbps
Subtitle: Chinese / 22,059 kbps
Subtitle: Chinese / 21,593 kbps
Subtitle: Czech / 23,412 kbps
Subtitle: Danish / 25,543 kbps
Subtitle: Dutch / 25,531 kbps
Subtitle: Finnish / 26,397 kbps
Subtitle: French / 28,472 kbps
Subtitle: German / 26,411 kbps
Subtitle: Greek / 26,329 kbps
Subtitle: Hebrew / 21,025 kbps
Subtitle: Hindi / 20,774 kbps
Subtitle: Hungarian / 26,756 kbps
Subtitle: Italian / 26,578 kbps
Subtitle: Japanese / 26,486 kbps
Subtitle: Korean / 18,299 kbps
Subtitle: Norwegian / 25,236 kbps
Subtitle: Polish / 26,284 kbps
Subtitle: Portuguese / 25,539 kbps
Subtitle: Russian / 26,309 kbps
Subtitle: Spanish / 25,257 kbps
Subtitle: Spanish / 33,454 kbps
Subtitle: Swedish / 22,308 kbps
Subtitle: Thai / 26,882 kbps
Subtitle: Japanese / 1,807 kbps
********************
PLAYLIST: 00250.MPLS
********************
Код:
Total   Video
Title                                                           Codec   Length  Movie Size      Disc Size       Bitrate Bitrate Main Audio Track                          Secondary Audio Track
-----                                                           ------  ------- --------------  --------------  ------- ------- ------------------                        ---------------------
00250.MPLS                                                      AVC     0:13:09 664 111 104     29 050 889 160  6,73    5,97    DD AC3 2.0 192Kbps
Код:
DISC INFO:
Disc Title:     Sleepless in Seattle 1993 1080p Blu-ray AVC DTS-HD MA 5.1-PCH
Disc Size:      29 050 889 160 bytes
Protection:     AACS
BD-Java:        Yes
BDInfo:         0.5.8
PLAYLIST REPORT:
Name:                   00250.MPLS
Length:                 0:13:09.388 (h:m:s.ms)
Size:                   664 111 104 bytes
Total Bitrate:          6,73 Mbps
VIDEO:
Codec                   Bitrate             Description
-----                   -------             -----------
MPEG-4 AVC Video        5967 kbps           480i / 29,970 fps / 4:3 / High Profile 4.1
AUDIO:
Codec                           Language        Bitrate         Description
-----                           --------        -------         -----------
Dolby Digital Audio             English         192 kbps        2.0 / 48 kHz / 192 kbps
SUBTITLES:
Codec                           Language        Bitrate         Description
-----                           --------        -------         -----------
Presentation Graphics           English         18,482 kbps
Presentation Graphics           Chinese         20,091 kbps
Presentation Graphics           Dutch           16,471 kbps
Presentation Graphics           French          12,746 kbps
Presentation Graphics           German          18,203 kbps
Presentation Graphics           Italian         17,049 kbps
Presentation Graphics           Japanese        15,464 kbps
Presentation Graphics           Spanish         17,180 kbps
FILES:
Name            Time In         Length          Size            Total Bitrate
----            -------         ------          ----            -------------
00505.M2TS      0:00:00.000     0:13:09.388     664 111 104     6 730
CHAPTERS:
Number          Time In         Length          Avg Video Rate  Max 1-Sec Rate  Max 1-Sec Time  Max 5-Sec Rate  Max 5-Sec Time  Max 10Sec Rate  Max 10Sec Time  Avg Frame Size  Max Frame Size  Max Frame Time
------          -------         ------          --------------  --------------  --------------  --------------  --------------  --------------  --------------  --------------  --------------  --------------
1               0:00:00.000     0:13:09.388     5 967 kbps      14 031 kbps     00:08:01.514    8 738 kbps      00:10:49.281    8 173 kbps      00:05:10.643    24 888 bytes    137 955 bytes   00:13:00.479
STREAM DIAGNOSTICS:
File            PID             Type            Codec           Language                Seconds                 Bitrate                 Bytes           Packets
----            ---             ----            -----           --------                --------------          --------------          -------------   -----
00505.M2TS      4113 (0x1011)   0x1B            AVC                                     789,289                 5 968                   588 804 319     3 225 800
00505.M2TS      4352 (0x1100)   0x81            AC3             eng (English)           789,289                 192                     18 945 792      123 345
00505.M2TS      4608 (0x1200)   0x90            PGS             eng (English)           789,289                 18                      1 823 678       11 268
00505.M2TS      4609 (0x1201)   0x90            PGS             zho (Chinese)           789,289                 20                      1 982 422       12 185
00505.M2TS      4610 (0x1202)   0x90            PGS             nld (Dutch)             789,289                 16                      1 625 268       10 094
00505.M2TS      4611 (0x1203)   0x90            PGS             fra (French)            789,289                 13                      1 257 653       8 221
00505.M2TS      4612 (0x1204)   0x90            PGS             deu (German)            789,289                 18                      1 796 131       11 102
00505.M2TS      4613 (0x1205)   0x90            PGS             ita (Italian)           789,289                 17                      1 682 292       10 480
00505.M2TS      4614 (0x1206)   0x90            PGS             jpn (Japanese)          789,289                 15                      1 525 883       9 401
00505.M2TS      4615 (0x1207)   0x90            PGS             spa (Spanish)           789,289                 17                      1 695 211       10 555
QUICK SUMMARY:
Disc Title: Sleepless in Seattle 1993 1080p Blu-ray AVC DTS-HD MA 5.1-PCH
Disc Size: 29 050 889 160 bytes
Protection: AACS
BD-Java: Yes
Playlist: 00250.MPLS
Size: 664 111 104 bytes
Length: 0:13:09.388
Total Bitrate: 6,73 Mbps
Video: MPEG-4 AVC Video / 5967 kbps / 480i / 29,970 fps / 4:3 / High Profile 4.1
Audio: English / Dolby Digital Audio / 2.0 / 48 kHz / 192 kbps
Subtitle: English / 18,482 kbps
Subtitle: Chinese / 20,091 kbps
Subtitle: Dutch / 16,471 kbps
Subtitle: French / 12,746 kbps
Subtitle: German / 18,203 kbps
Subtitle: Italian / 17,049 kbps
Subtitle: Japanese / 15,464 kbps
Subtitle: Spanish / 17,180 kbps
********************
PLAYLIST: 00102.MPLS
********************
Код:
Total   Video
Title                                                           Codec   Length  Movie Size      Disc Size       Bitrate Bitrate Main Audio Track                          Secondary Audio Track
-----                                                           ------  ------- --------------  --------------  ------- ------- ------------------                        ---------------------
00102.MPLS                                                      AVC     0:04:47 323 100 672     29 050 889 160  9,00    8,55
Код:
DISC INFO:
Disc Title:     Sleepless in Seattle 1993 1080p Blu-ray AVC DTS-HD MA 5.1-PCH
Disc Size:      29 050 889 160 bytes
Protection:     AACS
BD-Java:        Yes
BDInfo:         0.5.8
PLAYLIST REPORT:
Name:                   00102.MPLS
Length:                 0:04:47.245 (h:m:s.ms)
Size:                   323 100 672 bytes
Total Bitrate:          9,00 Mbps
VIDEO:
Codec                   Bitrate             Description
-----                   -------             -----------
MPEG-4 AVC Video        8554 kbps           1080p / 23,976 fps / 16:9 / High Profile 4.1
FILES:
Name            Time In         Length          Size            Total Bitrate
----            -------         ------          ----            -------------
00102.M2TS      0:00:00.000     0:04:47.245     323 100 672     8 999
CHAPTERS:
Number          Time In         Length          Avg Video Rate  Max 1-Sec Rate  Max 1-Sec Time  Max 5-Sec Rate  Max 5-Sec Time  Max 10Sec Rate  Max 10Sec Time  Avg Frame Size  Max Frame Size  Max Frame Time
------          -------         ------          --------------  --------------  --------------  --------------  --------------  --------------  --------------  --------------  --------------  --------------
1               0:00:00.000     0:00:15.015     29 334 kbps     32 278 kbps     00:00:14.014    29 429 kbps     00:00:10.010    29 266 kbps     00:00:05.005    152 510 bytes   660 356 bytes   00:00:15.015
2               0:00:15.015     0:00:15.015     6 333 kbps      11 282 kbps     00:00:25.692    6 830 kbps      00:00:24.983    6 775 kbps      00:00:19.978    33 019 bytes    695 344 bytes   00:00:26.693
3               0:00:30.030     0:00:15.015     95 kbps         247 kbps        00:00:44.044    112 kbps        00:00:40.040    99 kbps         00:00:35.035    494 bytes       21 325 bytes    00:00:45.045
4               0:00:45.045     0:00:15.015     576 kbps        5 409 kbps      00:00:59.059    1 247 kbps      00:00:55.055    744 kbps        00:00:50.050    3 004 bytes     651 150 bytes   00:01:00.060
5               0:01:00.060     0:00:15.015     13 269 kbps     19 496 kbps     00:01:08.193    13 965 kbps     00:01:05.857    13 809 kbps     00:01:04.731    69 178 bytes    776 639 bytes   00:01:10.862
6               0:01:15.075     0:00:15.015     13 271 kbps     18 736 kbps     00:01:27.504    13 926 kbps     00:01:24.626    13 639 kbps     00:01:19.621    69 187 bytes    724 519 bytes   00:01:29.214
7               0:01:30.090     0:03:17.155     7 674 kbps      13 053 kbps     00:01:39.140    8 018 kbps      00:01:35.303    7 863 kbps      00:02:08.461    40 027 bytes    783 052 bytes   00:01:40.100
STREAM DIAGNOSTICS:
File            PID             Type            Codec           Language                Seconds                 Bitrate                 Bytes           Packets
----            ---             ----            -----           --------                --------------          --------------          -------------   -----
00102.M2TS      4113 (0x1011)   0x1B            AVC                                     287,162                 8 557                   307 141 655     1 673 165
QUICK SUMMARY:
Disc Title: Sleepless in Seattle 1993 1080p Blu-ray AVC DTS-HD MA 5.1-PCH
Disc Size: 29 050 889 160 bytes
Protection: AACS
BD-Java: Yes
Playlist: 00102.MPLS
Size: 323 100 672 bytes
Length: 0:04:47.245
Total Bitrate: 9,00 Mbps
Video: MPEG-4 AVC Video / 8554 kbps / 1080p / 23,976 fps / 16:9 / High Profile 4.1
********************
PLAYLIST: 00251.MPLS
********************
Код:
Total   Video
Title                                                           Codec   Length  Movie Size      Disc Size       Bitrate Bitrate Main Audio Track                          Secondary Audio Track
-----                                                           ------  ------- --------------  --------------  ------- ------- ------------------                        ---------------------
00251.MPLS                                                      AVC     0:04:21 214 345 728     29 050 889 160  6,55    5,95    DD AC3 2.0 192Kbps
Код:
DISC INFO:
Disc Title:     Sleepless in Seattle 1993 1080p Blu-ray AVC DTS-HD MA 5.1-PCH
Disc Size:      29 050 889 160 bytes
Protection:     AACS
BD-Java:        Yes
BDInfo:         0.5.8
PLAYLIST REPORT:
Name:                   00251.MPLS
Length:                 0:04:21.928 (h:m:s.ms)
Size:                   214 345 728 bytes
Total Bitrate:          6,55 Mbps
VIDEO:
Codec                   Bitrate             Description
-----                   -------             -----------
MPEG-4 AVC Video        5946 kbps           480i / 29,970 fps / 4:3 / High Profile 4.1
AUDIO:
Codec                           Language        Bitrate         Description
-----                           --------        -------         -----------
Dolby Digital Audio             English         192 kbps        2.0 / 48 kHz / 192 kbps
FILES:
Name            Time In         Length          Size            Total Bitrate
----            -------         ------          ----            -------------
00506.M2TS      0:00:00.000     0:04:21.928     214 345 728     6 547
CHAPTERS:
Number          Time In         Length          Avg Video Rate  Max 1-Sec Rate  Max 1-Sec Time  Max 5-Sec Rate  Max 5-Sec Time  Max 10Sec Rate  Max 10Sec Time  Avg Frame Size  Max Frame Size  Max Frame Time
------          -------         ------          --------------  --------------  --------------  --------------  --------------  --------------  --------------  --------------  --------------  --------------
1               0:00:00.000     0:04:21.928     5 946 kbps      11 833 kbps     00:04:14.721    8 245 kbps      00:02:34.988    7 556 kbps      00:00:08.108    24 802 bytes    117 782 bytes   00:03:02.982
STREAM DIAGNOSTICS:
File            PID             Type            Codec           Language                Seconds                 Bitrate                 Bytes           Packets
----            ---             ----            -----           --------                --------------          --------------          -------------   -----
00506.M2TS      4113 (0x1011)   0x1B            AVC                                     261,862                 5 948                   194 692 374     1 066 649
00506.M2TS      4352 (0x1100)   0x81            AC3             eng (English)           261,862                 192                     6 286 848       40 930
QUICK SUMMARY:
Disc Title: Sleepless in Seattle 1993 1080p Blu-ray AVC DTS-HD MA 5.1-PCH
Disc Size: 29 050 889 160 bytes
Protection: AACS
BD-Java: Yes
Playlist: 00251.MPLS
Size: 214 345 728 bytes
Length: 0:04:21.928
Total Bitrate: 6,55 Mbps
Video: MPEG-4 AVC Video / 5946 kbps / 480i / 29,970 fps / 4:3 / High Profile 4.1
Audio: English / Dolby Digital Audio / 2.0 / 48 kHz / 192 kbps
********************
PLAYLIST: 00107.MPLS
********************
Код:
Total   Video
Title                                                           Codec   Length  Movie Size      Disc Size       Bitrate Bitrate Main Audio Track                          Secondary Audio Track
-----                                                           ------  ------- --------------  --------------  ------- ------- ------------------                        ---------------------
00107.MPLS                                                      MPEG-2  0:00:26 1 620 288       29 050 889 160  0,50    0,21
Код:
DISC INFO:
Disc Title:     Sleepless in Seattle 1993 1080p Blu-ray AVC DTS-HD MA 5.1-PCH
Disc Size:      29 050 889 160 bytes
Protection:     AACS
BD-Java:        Yes
BDInfo:         0.5.8
PLAYLIST REPORT:
Name:                   00107.MPLS
Length:                 0:00:26.067 (h:m:s.ms)
Size:                   1 620 288 bytes
Total Bitrate:          0,50 Mbps
VIDEO:
Codec                   Bitrate             Description
-----                   -------             -----------
MPEG-2 Video            213 kbps            1080p / 23,976 fps / 16:9
FILES:
Name            Time In         Length          Size            Total Bitrate
----            -------         ------          ----            -------------
00107.M2TS      0:00:00.000     0:00:08.007     225 984         113
00107.M2TS      0:00:08.007     0:00:08.008     240 576         120
00107.M2TS      0:00:16.016     0:00:05.004     362 112         291
00107.M2TS      0:00:21.021     0:00:05.005     596 736         479
00107.M2TS      0:00:26.026     0:00:00.041     194 880         37 377
CHAPTERS:
Number          Time In         Length          Avg Video Rate  Max 1-Sec Rate  Max 1-Sec Time  Max 5-Sec Rate  Max 5-Sec Time  Max 10Sec Rate  Max 10Sec Time  Avg Frame Size  Max Frame Size  Max Frame Time
------          -------         ------          --------------  --------------  --------------  --------------  --------------  --------------  --------------  --------------  --------------  --------------
1               0:00:00.000     0:00:08.007     347 kbps        181 kbps        00:00:07.966    181 kbps        00:00:07.966    0 kbps          00:00:00.000    173 850 bytes   181 139 bytes   00:00:15.974
2               0:00:08.007     0:00:08.008     316 kbps        505 kbps        00:00:15.974    505 kbps        00:00:15.974    0 kbps          00:00:00.000    315 931 bytes   315 931 bytes   00:00:20.979
3               0:00:16.016     0:00:05.004     566 kbps        566 kbps        00:00:20.979    566 kbps        00:00:20.979    0 kbps          00:00:00.000    354 260 bytes   354 260 bytes   00:00:25.984
4               0:00:21.021     0:00:05.046     4 420 kbps      851 kbps        00:00:20.979    851 kbps        00:00:20.979    709 kbps        00:00:15.932    253 471 bytes   354 260 bytes   00:00:25.984
STREAM DIAGNOSTICS:
File            PID             Type            Codec           Language                Seconds                 Bitrate                 Bytes           Packets
----            ---             ----            -----           --------                --------------          --------------          -------------   -----
00107.M2TS      4113 (0x1011)   0x02            MPEG-2                                  18,018                  533                     1 200 371       6 527
QUICK SUMMARY:
Disc Title: Sleepless in Seattle 1993 1080p Blu-ray AVC DTS-HD MA 5.1-PCH
Disc Size: 29 050 889 160 bytes
Protection: AACS
BD-Java: Yes
Playlist: 00107.MPLS
Size: 1 620 288 bytes
Length: 0:00:26.067
Total Bitrate: 0,50 Mbps
Video: MPEG-2 Video / 213 kbps / 1080p / 23,976 fps / 16:9
********************
PLAYLIST: 00120.MPLS
********************
Код:
Total   Video
Title                                                           Codec   Length  Movie Size      Disc Size       Bitrate Bitrate Main Audio Track                          Secondary Audio Track
-----                                                           ------  ------- --------------  --------------  ------- ------- ------------------                        ---------------------
00120.MPLS                                                      MPEG-2  0:00:26 1 620 288       29 050 889 160  0,50    0,21
Код:
DISC INFO:
Disc Title:     Sleepless in Seattle 1993 1080p Blu-ray AVC DTS-HD MA 5.1-PCH
Disc Size:      29 050 889 160 bytes
Protection:     AACS
BD-Java:        Yes
BDInfo:         0.5.8
PLAYLIST REPORT:
Name:                   00120.MPLS
Length:                 0:00:26.067 (h:m:s.ms)
Size:                   1 620 288 bytes
Total Bitrate:          0,50 Mbps
VIDEO:
Codec                   Bitrate             Description
-----                   -------             -----------
MPEG-2 Video            213 kbps            1080p / 23,976 fps / 16:9
FILES:
Name            Time In         Length          Size            Total Bitrate
----            -------         ------          ----            -------------
00120.M2TS      0:00:00.000     0:00:08.007     225 984         113
00120.M2TS      0:00:08.007     0:00:08.008     240 576         120
00120.M2TS      0:00:16.016     0:00:05.004     362 112         291
00120.M2TS      0:00:21.021     0:00:05.005     596 736         479
00120.M2TS      0:00:26.026     0:00:00.041     194 880         37 377
CHAPTERS:
Number          Time In         Length          Avg Video Rate  Max 1-Sec Rate  Max 1-Sec Time  Max 5-Sec Rate  Max 5-Sec Time  Max 10Sec Rate  Max 10Sec Time  Avg Frame Size  Max Frame Size  Max Frame Time
------          -------         ------          --------------  --------------  --------------  --------------  --------------  --------------  --------------  --------------  --------------  --------------
1               0:00:00.000     0:00:08.007     347 kbps        181 kbps        00:00:07.966    181 kbps        00:00:07.966    0 kbps          00:00:00.000    173 850 bytes   181 139 bytes   00:00:15.974
2               0:00:08.007     0:00:08.008     316 kbps        505 kbps        00:00:15.974    505 kbps        00:00:15.974    0 kbps          00:00:00.000    315 931 bytes   315 931 bytes   00:00:20.979
3               0:00:16.016     0:00:05.004     566 kbps        566 kbps        00:00:20.979    566 kbps        00:00:20.979    0 kbps          00:00:00.000    354 260 bytes   354 260 bytes   00:00:25.984
4               0:00:21.021     0:00:05.046     4 420 kbps      851 kbps        00:00:20.979    851 kbps        00:00:20.979    709 kbps        00:00:15.932    253 471 bytes   354 260 bytes   00:00:25.984
STREAM DIAGNOSTICS:
File            PID             Type            Codec           Language                Seconds                 Bitrate                 Bytes           Packets
----            ---             ----            -----           --------                --------------          --------------          -------------   -----
00120.M2TS      4113 (0x1011)   0x02            MPEG-2                                  18,018                  533                     1 200 371       6 527
QUICK SUMMARY:
Disc Title: Sleepless in Seattle 1993 1080p Blu-ray AVC DTS-HD MA 5.1-PCH
Disc Size: 29 050 889 160 bytes
Protection: AACS
BD-Java: Yes
Playlist: 00120.MPLS
Size: 1 620 288 bytes
Length: 0:00:26.067
Total Bitrate: 0,50 Mbps
Video: MPEG-2 Video / 213 kbps / 1080p / 23,976 fps / 16:9

Скриншоты

Сэмпл

Other forum [Profile] [PM]
Display posts from previous:    
Reply to topic

The time now is: Today 11:12

All times are GMT + 3 Hours



You cannot post new topics in this forum
You cannot reply to topics in this forum
You cannot edit your posts in this forum
You cannot delete your posts in this forum
You cannot vote in polls in this forum
You cannot attach files in this forum
You cannot download files in this forum