Today is a free download without charge Download

Порочные игры / Stoker (Пак Чхан Ук) (Любительский одноголосый, закадровый, 2013) BDRip [720p] [VO]

Reply to topic
 
Author
Message

Omen ®

Longevity: 8 years 5 months

Posts: 181087

Торрент-статистика

Post 09-Jun-2013 14:28

[Quote]

Порочные игры / Stoker «Do not disturb the family.»- Русское название: Порочные игры
Оригинальное название: Stoker
Год выпуска: 2013
Производство: Великобритания, США
Жанр: Триллер, Драма, Детектив
Перевод: Любительский одноголосый, закадровый
Озвучка / Автор перевода: den904
Субтитры: Вшитые отключаемые
Язык субтитров: Aнглийский
Дата мировой премьеры: 20 января 2013
Дата выхода DVD релиза: 15 августа 2013, «Двадцатый Век Фокс СНГ»
Дата выхода Blu-Ray релиза: 15 августа 2013, «Двадцатый Век Фокс СНГ»
Режиссер: Пак Чхан Ук
Продюсер: Майкл Костиган, Ридли Скотт, Тони Скотт
Актеры: Миа Васиковска, Мэттью Гуд, Николь Кидман, Дэвид Элфорд, Пег Аллен, Лорен Э. Роман, Филлис Соммервиль, Хармони Корин, Лукас Тилл, Олден Эйренрайк
Описание фильма:
После смерти отца к девушке и её эмоционально неустойчивой матери приезжает их загадочный дядя...

Продолжительность: 01:38:55
Качество видео: BDRip
Видеокодек: MPEG-4 AVC/H.264
Битрейт видео: ~4618 Kbit/s
Размер кадра: 1280 x 534
Aудио #1: AC3, 48,0 КHz, 5.1, 384 Kbit/s (Русский одноголосый)
Aудио #2: DTS, 48,0 КHz, 5.1, 1510 Kbit/s (Оригинальный английский)

MediaInfo

Общее
Уникальный идентификатор : 229629127259527888225820160425223023343 (0xACC0F6131EF96C7A89DAC0B6F5246AEF)
Полное имя : D:\Торренты\Порочные игры.2013.BDRip.720p.mkv
Формат : Matroska
Размер файла : 4,59 Гбайт
Продолжительность : 1 ч. 38 м.
Общий поток : 6643 Кбит/сек
Дата кодирования : UTC 2013-06-07 18:12:08
Программа кодирования : mkvmerge v6.2.0 ('Promised Land')
Библиотека кодирования : libebml v1.3.0 + libmatroska v1.4.0
Видео
Идентификатор : 1
Формат : AVC
Формат/Информация : Advanced Video Codec
Профиль формата : [url=mailto:[email protected]][email protected][/url]
Параметр CABAC формата : Да
Параметр ReFrames формата : 5 кадров
Параметры GOP формата : M=4, N=58
Идентификатор кодека : V_MPEG4/ISO/AVC
Продолжительность : 1 ч. 38 м.
Битрейт : 4618 Кбит/сек
Номинальный битрейт : 4875 Кбит/сек
Ширина : 1280 пикс.
Высота : 534 пикс.
Соотношение сторон : 2,35:1
Частота кадров : 23,976 кадр/сек
Цветовое пространство : YUV
Подвыборка цветности : 4:2:0
Битовая глубина : 8 бит
Тип развёртки : Прогрессивная
Бит/(Пиксели*Кадры) : 0.282
Размер потока : 3,19 Гбайт (70%)
Библиотека кодирования : x264 core 130 r2273 b3065e6
Настройки программы : cabac=1 / ref=5 / deblock=1:0:0 / analyse=0x3:0x113 / me=umh / subme=7 / psy=1 / psy_rd=1.00:0.00 / mixed_ref=1 / me_range=16 / chroma_me=1 / trellis=1 / 8x8dct=1 / cqm=0 / deadzone=21,11 / fast_pskip=1 / chroma_qp_offset=-2 / threads=16 / lookahead_threads=2 / sliced_threads=0 / nr=0 / decimate=1 / interlaced=0 / bluray_compat=0 / constrained_intra=0 / bframes=3 / b_pyramid=2 / b_adapt=1 / b_bias=0 / direct=3 / weightb=1 / open_gop=0 / weightp=2 / keyint=240 / keyint_min=23 / scenecut=40 / intra_refresh=0 / rc_lookahead=40 / rc=abr / mbtree=1 / bitrate=4875 / ratetol=1.0 / qcomp=0.60 / qpmin=0 / qpmax=69 / qpstep=4 / ip_ratio=1.40 / aq=1:1.00
Язык : English
Аудио #1
Идентификатор : 2
Формат : AC-3
Формат/Информация : Audio Coding 3
Расширение режима : CM (complete main)
Идентификатор кодека : A_AC3
Продолжительность : 1 ч. 38 м.
Вид битрейта : Постоянный
Битрейт : 384 Кбит/сек
Каналы : 6 каналов
Расположение каналов : Front: L C R, Side: L R, LFE
Частота : 48,0 КГц
Битовая глубина : 16 бит
Метод сжатия : С потерями
Размер потока : 272 Мбайт (6%)
Язык : Russian
Аудио #2
Идентификатор : 3
Формат : DTS
Формат/Информация : Digital Theater Systems
Идентификатор кодека : A_DTS
Продолжительность : 1 ч. 38 м.
Вид битрейта : Постоянный
Битрейт : 1510 Кбит/сек
Каналы : 6 каналов
Расположение каналов : Front: L C R, Side: L R, LFE
Частота : 48,0 КГц
Битовая глубина : 24 бит
Метод сжатия : С потерями
Размер потока : 1,04 Гбайт (23%)
Язык : English
Текст
Идентификатор : 4
Формат : VobSub
Режим смешивания : zlib
Идентификатор кодека : S_VOBSUB
Идентификатор кодека/Информация : The same subtitle format used on DVDs
Язык : English
Меню
00:00:00.000 : en:00:00:00.000
00:03:48.603 : en:00:03:48.603
00:04:37.277 : en:00:04:37.277
00:07:26.863 : en:00:07:26.863
00:08:42.147 : en:00:08:42.147
00:13:28.558 : en:00:13:28.558
00:16:59.810 : en:00:16:59.810
00:19:24.955 : en:00:19:24.955
00:22:27.096 : en:00:22:27.096
00:26:50.067 : en:00:26:50.067
00:30:26.533 : en:00:30:26.533
00:34:43.290 : en:00:34:43.290
00:39:18.565 : en:00:39:18.565
00:41:47.505 : en:00:41:47.505
00:46:14.772 : en:00:46:14.772
00:49:42.730 : en:00:49:42.730
00:52:46.830 : en:00:52:46.830
00:54:50.496 : en:00:54:50.496
00:59:21.558 : en:00:59:21.558
01:02:43.051 : en:01:02:43.051
01:07:04.187 : en:01:07:04.187
01:08:38.239 : en:01:08:38.239
01:15:24.895 : en:01:15:24.895
01:18:14.773 : en:01:18:14.773
01:22:11.927 : en:01:22:11.927
01:26:22.511 : en:01:26:22.511
01:31:17.472 : en:01:31:17.472
01:34:38.214 : en:01:34:38.214
Скриншоты:
         
Other forum [Profile] [PM]

Dracula

Longevity: 7 years 5 months

Posts: 11215

Торрент-статистика

Post 12-Jun-2013 18:28 (after 3 days)

Топик был перенесен из форума Фильмы 2013 (новинки) в форум Новинки (DVD, HD Video)


Delia
 

Dracula

Longevity: 7 years 5 months

Posts: 11215

Торрент-статистика

Post 02-Jan-2014 15:52 (after 6 months 23 days)

Топик был перенесен из форума Новинки (DVD, HD Video) в форум Зарубежное кино (HD Video)


kogesan
 
Display posts from previous:    
Reply to topic

The time now is: Today 13:29

All times are GMT + 3 Hours



You cannot post new topics in this forum
You cannot reply to topics in this forum
You cannot edit your posts in this forum
You cannot delete your posts in this forum
You cannot vote in polls in this forum
You cannot attach files in this forum
You cannot download files in this forum