Today is a free download without charge Download

Приключения Гекльберри Финна / Die Abenteuer des Huck Finn (2012) DVD5

Reply to topic
 
Author
Message

Omen ®

Longevity: 8 years 6 months

Posts: 181087

Торрент-статистика

Post 09-Jun-2013 13:52

[Quote]

Приключения Гекльберри Финна
Die Abenteuer des Huck Finn
- Русское название: Приключения Гекльберри Финна
Оригинальное название: Die Abenteuer des Huck Finn
Год выпуска: 2012
Жанр: Приключения, Семейный
Страна: Германия
Описание фильма:
Кто не знает Тома Сойера и Гекльберри Финна? Найдя сокровища, эти два проказника наконец разбогатели. Однако «свободный волк» Гек не может усидеть на месте. К тому же его добрый друг, чернокожий Джим, в опасности — хозяйка собирается продать его на аукционе. В компании Джима Гек отправляется мимо диких берегов Миссисипи — сначала в Каир, а потом и в Огайо, в свободную страну, не знающую рабства… А значит, впереди беглецов ждёт множество самых невероятных приключений! Будет ли счастливый конец у этой полной опасностей истории? И увидятся ли снова закадычные друзья Том Сойер и Гекльберри Финн?
Режиссер: Гермина Хунтгебурт
Актеры: Леон Сидел, Луис Хофманн, Джеки Идо, Аугуст Диль, Хайке Макач, Петер Ломайер, Михаэль Гвиздек, Курт Крюмер, Хиннерк Шонеманн, Хенри Хюбхен
Продолжительность: 01:42:56
Перевод: Дублированный

Дата российской премьеры: 9 мая 2013, «Люксор»
Дата выхода DVD релиза: Июнь 2013, «Новый Диск»
За предоставленный DVD Спасибо DGEKIGAN
Видеокодек: MPEG-2
Битрейт видео: ~5134 kb/s
Размер кадра: 720х576
Качество видео: DVD5
Аудио #1: AC3 2 ch, 192 kb/s - Русский
Аудио #2: AC3 6 ch, 448 kb/s - Русский

Дополнительно

Трейлер мультфильма Кумба

MediaInfo

Формат : MPEG-PS
Размер файла : 1024 Мбайт
Продолжительность : 24 м.
Режим общего битрейта : Переменный
Общий поток : 5891 Кбит/сек
Видео
Идентификатор : 224 (0xE0)
Формат : MPEG Video
Версия формата : Version 2
Профиль формата : [email protected]
Параметр BVOP формата : Да
Параметр матрицы формата : Выборочная
Продолжительность : 24 м.
Вид битрейта : Переменный
Битрейт : 5134 Кбит/сек
Максимальный битрейт : 9800 Кбит/сек
Ширина : 720 пикселей
Высота : 576 пикселей
Соотношение сторон : 16:9
Частота кадров : 25,000 кадров/сек
Стандарт вещания : PAL
Цветовое пространство : YUV
Субдискретизация насыщенности : 4:2:0
Битовая глубина : 8 бит
Тип развёртки : Чересстрочная
Порядок развёртки : Верхнее поле первое
Метод сжатия : С потерями
Бит/(Пиксели*Кадры) : 0.495
Размер потока : 892 Мбайт (87%)
Аудио #1
Идентификатор : 189 (0xBD)-128 (0x80)
Формат : AC-3
Формат/Информация : Audio Coding 3
Расширение режима : CM (complete main)
Параметр Endianness формата : Big
Режим смешивания : DVD-Video
Продолжительность : 24 м.
Вид битрейта : Постоянный
Битрейт : 192 Кбит/сек
Каналы : 2 канала
Расположение каналов : Front: L R
Частота : 48,0 КГц
Битовая глубина : 16 бит
Метод сжатия : С потерями
Размер потока : 33,4 Мбайт (3%)
Аудио #2
Идентификатор : 189 (0xBD)-129 (0x81)
Формат : AC-3
Формат/Информация : Audio Coding 3
Расширение режима : CM (complete main)
Параметр Endianness формата : Big
Режим смешивания : DVD-Video
Продолжительность : 24 м.
Вид битрейта : Постоянный
Битрейт : 448 Кбит/сек
Каналы : 6 каналов
Расположение каналов : Front: L C R, Side: L R, LFE
Частота : 48,0 КГц
Битовая глубина : 16 бит
Метод сжатия : С потерями
Размер потока : 77,9 Мбайт (8%)
Меню

DVDInfo

Title: Prikljuchenija.Geklberri.Finnа.2012.DVD5
Size: 4.36 Gb ( 4 574 108,00 KBytes ) - DVD-5
Enabled regions: 1, 2, 3, 4, 5, 6, 7, 8
VTS_01 :
Play Length: 00:00:19
Video: PAL 4:3 (720x576) VBR
Audio:
  • Russian (Dolby AC3, 2 ch)
    VTS_02 :
    Play Length: 00:00:02
    Video: PAL 16:9 (720x576) VBR, Auto Letterboxed
    Audio:
  • Russian (Dolby AC3, 2 ch)
    VTS_03 :
    Play Length: 01:42:56
    Video: PAL 16:9 (720x576) VBR, Auto Letterboxed
    Audio:
  • Russian (Dolby AC3, 2 ch)
  • Russian (Dolby AC3, 6 ch)
    * Menus Information *
    VIDEO_TS Menu
    Video:
  • PAL 4:3 (720x576) VBR
    English Language Unit :
  • Title Menu
    VTS_01 Menu
    Video:
  • PAL 4:3 (720x576) VBR
    English Language Unit :
  • Root Menu
    VTS_02 Menu
    Video:
  • PAL 16:9 (720x576) VBR
  • Auto Letterboxed
    Audio:
  • Not specified (Dolby AC3, 2 ch)
    English Language Unit :
  • Root Menu
    VTS_03 Menu
    Video:
  • PAL 4:3 (720x576) VBR
    English Language Unit :
  • Root Menu
  • Audio Menu
  • Chapter (PTT) Menu

Скриншоты меню:

         
   
Скриншоты:
         
Other forum [Profile] [PM]
Similar theme
Forum Topic Author Torrent Replies Last Post
./templates/default/images/folder_dl.gif Обучающее видео Учебный центр 1C | Использование прикладного решения 1С Розница 8.2 Редакция 2 (2015) PCRec Varius
1 | 0

0 | 2730

44

2015-07-16 05:16
Varius Latest
./templates/default/images/folder_dl.gif Мультфильмы в формате 3D Король Лев 3Д / The Lion King 3D (Роджер Аллерс, Роб Минкофф / Roger Allers, Rob Minkoff) [1994, США, мультфильм, мюзикл, драма, приключения, семейный, Blu-ray disc 1080p] BD3D CEE Omen
1 | 0

0 | 1063

0

2016-03-31 21:04
Omen Latest
./templates/default/images/folder_dl.gif Зарубежное кино Изгой-один: Звёздные войны. Истории / Rogue One: A Star Wars Story (Гарет Эдвардс) [2016 г., фантастика, боевик, приключения, BDRip 1080p] DUB | Чистый звук Theseus
1 | 0

0 | 8017

8

2017-03-22 11:05
Theseus Latest
./templates/default/images/folder_dl.gif Зарубежные сериалы Игра престолов / Game of Thrones / Сезон: 8 / Серии: 1-6 из 6 (Алан Тейлор / Alan Taylor) [2019, фэнтези, боевик, драма, мелодрама, приключения, WEB-DL 1080p] MVO (Amedia / Новамедиа) + Original + Sub (Rus, Eng) ¶ }{@R0N
1 | 0

0 | 2570

0

2019-05-20 12:02
}{@R0N Latest
./templates/default/images/folder_dl.gif Новинки (HD|DVD|BD|WEB|TV|SAT|PDTV|-Rip) Смотри как я (Егор Сальников) [2020 г., комедия, приключения, WEB-DLRip] iTunes kilmister777
1 | 0

0 | 1330

0

2020-09-27 14:17
kilmister777 Latest
./templates/default/images/folder_dl.gif Новинки (HD|DVD|BD|WEB|TV|SAT|PDTV|-Rip) Последняя капля / On the Rocks (София Коппола) [2020 г., драма, комедия, приключения,WEB-DLRip ] DUB | Apple TV+ kilmister777
1 | 0

0 | 963

0

2020-10-27 08:35
kilmister777 Latest
Display posts from previous:    
Reply to topic

The time now is: Today 10:23

All times are GMT + 3 Hours



You cannot post new topics in this forum
You cannot reply to topics in this forum
You cannot edit your posts in this forum
You cannot delete your posts in this forum
You cannot vote in polls in this forum
You cannot attach files in this forum
You cannot download files in this forum