Today is a free download without charge Download

Чучело (Ролан Быков, Аркадий Хайт) (драма, 1983) DVD9 [КП - Полная реставрация]

Reply to topic
 
Author
Message

Omen ®

Longevity: 8 years 7 months

Posts: 181087

Торрент-статистика

Post 09-Jun-2013 13:24

[Quote]

Чучело- Год выпуска: 1983
Страны: СССР
Жанры: драма, ...
Продолжительность: 01:02:53+00:57:12
Режиссер: Ролан Быков, Аркадий Хайт
Сценарий: Ролан Быков, Владимир Железников
Оператор: Анатолий Мукасей, Владимир Мясников, Д. Смидович
Композитор : Софья Губайдулина
Художник: Евгений Маркович, А. Докучаева
Монтаж: Людмила Елян
В ролях: Кристина Орбакайте (Лена Бессольцева), Юрий Никулин (Николай Николаевич Бессольцев), Елена Санаева (учительница Маргарита Ивановна), Дмитрий Егоров (Дима Сомов), Ксения Филиппова (Миронова, Железная Кнопка), Анна Толмачева (Шмакова), Марина Мартанова (Марина), Светлана Крючкова (тетя Клава)

Описание: Полный драматических коллизий фильм, снятый по мотивам одноименной повести В. Железникова. История чистой, мужественной и самоотверженной девочки Лены, прозванной одноклассниками «чучелом», заставит вас на многое взглянуть другими глазами.
Зрители: СССР 23.7 млн
Премьера (мир): 14 сентября 1984, ...
Релиз на DVD: 3 мая 2011, «Азимут», ...
Рейтинг MPAA: Нет возрастных ограничений--Качество: DVD9
Видеокодек: MPEG-2
Битрейт видео: ~5 213 Kbps
Размер кадра: 720х576
Аудио:
1. AC3, 320 Kbps, 48.0 KHz, 6 ch
2. AC3, 224 Kbps, 48.0 KHz, 1 ch-Субтитры: нет

DVDInfo

Title: Elements
Size: 6.16 Gb ( 6 462 804 KBytes ) - DVD-9
Enabled regions: 1, 2, 3, 4, 5, 6, 7, 8
VTS_01 :
Play Length: 00:00:51
Video: PAL 4:3 (720x576) VBR
VTS_02 :
Play Length: 01:02:53
Video: PAL 16:9 (720x576) VBR, Auto Pan&Scan
Audio:
  • Russian (Dolby AC3, 6 ch)
  • Russian (Dolby AC3, 1 ch)
    VTS_03 :
    Play Length: 00:57:24
    Video: PAL 16:9 (720x576) VBR, Auto Pan&Scan
    Audio:
  • Russian (Dolby AC3, 6 ch)
  • Russian (Dolby AC3, 1 ch)
    VTS_04 :
    Play Length: 00:01:05
    Video: PAL 16:9 (720x576) VBR, Auto Pan&Scan
    Audio:
  • Russian (Dolby AC3, 2 ch)

MediaInfo

Общее
Полное имя : E:\DVD\CHUCHELO\VIDEO_TS\VTS_02_2.VOB
Формат : MPEG-PS
Размер файла : 1024 Мбайт
Продолжительность : 21 м.
Общий поток : 6796 Кбит/сек
Видео
Идентификатор : 224 (0xE0)
Формат : MPEG Video
Версия формата : Version 2
Профиль формата : [email protected]
Параметр BVOP формата : Да
Параметр матрицы формата : Выборочная
Параметр GOP формата : M=3, N=12
Продолжительность : 21 м.
Битрейт : 6000 Кбит/сек
Ширина : 720 пикселей
Высота : 576 пикселей
Соотношение сторон : 4:3
Частота кадров : 25,000 кадров/сек
Стандарт вещания : PAL
Цветовое пространство : YUV
Субдискретизация насыщенности : 4:2:0
Битовая глубина : 8 бит
Тип развёртки : Чересстрочная
Порядок развёртки : Верхнее поле первое
Метод сжатия : С потерями
Бит/(Пиксели*Кадры) : 0.579
Размер потока : 902 Мбайт (88%)
Аудио #1
Идентификатор : 189 (0xBD)-128 (0x80)
Формат : AC-3
Формат/Информация : Audio Coding 3
Расширение режима : CM (complete main)
Параметр Endianness формата : Big
Режим смешивания : DVD-Video
Продолжительность : 21 м.
Вид битрейта : Постоянный
Битрейт : 448 Кбит/сек
Каналы : 6 каналов
Расположение каналов : Front: L C R, Side: L R, LFE
Частота : 48,0 КГц
Битовая глубина : 16 бит
Метод сжатия : С потерями
Задержка видео : -496 мс.
Размер потока : 67,5 Мбайт (7%)
Аудио #2
Идентификатор : 189 (0xBD)-129 (0x81)
Формат : AC-3
Формат/Информация : Audio Coding 3
Расширение режима : CM (complete main)
Параметр Endianness формата : Big
Режим смешивания : DVD-Video
Продолжительность : 21 м.
Вид битрейта : Постоянный
Битрейт : 224 Кбит/сек
Каналы : 1 канал
Расположение каналов : Front: C
Частота : 48,0 КГц
Битовая глубина : 16 бит
Метод сжатия : С потерями
Задержка видео : -464 мс.
Размер потока : 33,7 Мбайт (3%)
Меню

Дополнительно

Бонусы: Фильмографии, До реставрации и после

Скриншоты меню

       

Знаете ли Вы, что...

★ На пятый день съемок фильма в Твери (тогда город Калинин) Кристина Орбакайте сломала руку, упав на лестнице. Оставшуюся часть съемочного процесса девочка играла со сломаной рукой.
★ Фильм снят по одноимённой повести Владимира Железникова (1981).
★ «Чучело» снималось в Твери, отдельные сцены в г. Торжке (Тверская область).
★ На одну из ролей пробовался Алексей Фомкин. Так же в фильм пробовались Филипп Янковский и Мария Миронова.
★ Павел Санаев признался, что был влюблён в Анну Толмачеву, но девочка была старше его и не отвечала взаимностью.
★ Когда Сомов в финале пытается выпрыгнуть из окна, за кадром звучит песня «Беловежская пуща».
★ На роль Лены Бесольцевой Ролан Быков отсмотрел около семнадцати тысяч девочек со всего Союза.
★ На роль красавчика и слабака Мити Ролан Быков сначала утвердил сына Олега Янковского, Филиппа. Но его родители вдруг решили, что съемки помешают учебе и не отпустили мальчика в экспедицию. Быков объявил Олегу Янковскому бойкот, а на роль Мити взял Дмитрия Егорова, сына другой советской кинозвезды, Натальи Кустинской.
★ Ища актеров на роли детей, Быков, по слухам, просмотрел 27 тысяч кандидатов по всей стране.
Скриншоты:          
         
Other forum [Profile] [PM]
Display posts from previous:    
Reply to topic

The time now is: Today 15:27

All times are GMT + 3 Hours



You cannot post new topics in this forum
You cannot reply to topics in this forum
You cannot edit your posts in this forum
You cannot delete your posts in this forum
You cannot vote in polls in this forum
You cannot attach files in this forum
You cannot download files in this forum