Today is a free download without charge Download

Дежа вю / Deja Vu (Тони Скотт) [2006.., США, Фантастика, Боевик, Триллер, BDRemux] [1080p]

Reply to topic
 
Author
Message

Meshanik ®

Gender:

Longevity: 8 years 10 months

Posts: 3866

Location: Los Angeles

Торрент-статистика

Post 09-Jun-2013 12:57

[Quote]

Дежа вю / Deja Vu
«Дежа вю считается обманом сознания... а что, если это не так?»
- Русское название: Дежа вю
Оригинальное название: Deja Vu
Год выпуска: 2006
Производство: Scott Free Productions [США, Великобритания]
Жанр: Фантастика, Боевик, Триллер
Продолжительность: 02:06:26
Перевод: Дублированный (Русский, Украинский), Многоголосый закадровый, Двухголосый закадровый, Одноголосый закадровый
Субтитры: Вшитые отключаемые
Язык субтитров: Русский, украинский, английский
Режиссер: Тони Скотт
Продюсер: Джерри Брукхаймер, Тед Эллиот, Дон Феррарон
Актеры: Дензел Вашингтон, Пола Пэттон, Вэл Килмер, Джеймс Кэвизел, Адам Голдберг, Элден Хенсон, Эрика Александр, Брюс Гринвуд, Рич Хатчмэн, Мэтт Крэвен
Описание фильма:
Каждый из нас хотя бы раз в жизни испытывал эффект дежа вю, когда нам вдруг начинает казаться, что мы знакомы с людьми, которых на самом деле раньше никогда не видели, и уже бывали в местах, где на самом деле никогда не были. И, возможно, в такие моменты кому-то приходила в голову мысль, что эти ощущения — не что иное, как предупреждения, посланные нам из прошлого, а может быть, и ключ к познанию будущего. Агент АТФ Даг Карлин получает возможность совершать путешествия во времени, расследуя обстоятельства взрыва, произошедшего на новоорлеанском пароме. Оказавшись в прошлом, он встречает женщину, которую должны убить, и в итоге влюбляется в нее…
Дата мировой премьеры: 20 ноября 2006
Дата российской премьеры: 14 декабря 2006, «Каскад»
Дата выхода DVD релиза: 6 апреля 2010, «УД Компани СНГ»
Дата выхода Blu-Ray релиза: 23 ноября 2010, «УД Компани СНГ»

Рейтинг PG-13 - Детям до 13 лет просмотр не желателен
Возраст 16+ - Зрителям, достигшим 16 лет
Качество видео: BDRemux
Видео: VC-1, 1920x1080 (16:9), ~23171 kbps
Аудио 1: AC3 5.1, 640 kbps, 48 kHz [Русский - дублированный]
Аудио 2: DTS 5.1, 1510 kbps, 48 kHz [Русский - многоголосый закадровый «Киномания»]
Аудио 3: DTS-HD MA 5.1, 2232 kbps, 48 kHz [Русский - двухголосый закадровый «П. Гланц и И. Королева»]
Аудио 4: DTS-HD MA 5.1, 2243 kbps, 48 kHz [Русский - одноголосый закадровый «А. Гаврилов»]
Аудио 5: AC3 5.1, 640 kbps, 48 kHz [Русский - одноголосый закадровый «С. Рябов»]
Аудио 6: AC3 2.0, 320 kbps, 48 kHz [Украинский - дублированный]
Аудио 7: DTS-HD MA 5.1, 2230 kbps, 48 kHz [Английский - оригинал]
Аудио 8: Vorbis 2.0, 80 kbps (vbr), 48 kHz [Английский - комментарии]

Отчёт MediaInfo

Полное имя : D:\Дежа.вю-Deja.Vu.(2006).BDRemux.[1080p] (23171).mkv
Формат : Matroska
Версия формата : Version 2
Размер файла : 29,2 Гбайт
Продолжительность : 2 ч. 6 м.
Режим общего битрейта : Переменный
Общий поток : 33,0 Мбит/сек
Название фильма : Lelya_K for /*spam*/
Дата кодирования : UTC 2013-06-08 17:11:06
Программа кодирования : mkvmerge v5.7.0 ('The Whirlwind') built on Aug 7 2012 14:11:40
Библиотека кодирования : libebml v1.2.3 + libmatroska v1.3.0
Видео
Идентификатор : 1
Формат : VC-1
Профиль формата : [email protected]
Идентификатор кодека : V_MS/VFW/FOURCC / WVC1
Идентификатор кодека/Подсказка : Microsoft
Битрейт : 23,0 Мбит/сек
Ширина : 1920 пикселей
Высота : 1080 пикселей
Соотношение сторон : 16:9
Режим частоты кадров : Переменный
Частота кадров в оригинале : 23,976 кадра/сек
Субдискретизация насыщенности : 4:2:0
Битовая глубина : 8 бит
Тип развёртки : Прогрессивная
Метод сжатия : С потерями
Заголовок : Дежа.вю-Deja.Vu.(2006).BDRemux.[1080p]
Язык : English
Default : Да
Forced : Нет
Аудио #1
Идентификатор : 2
Формат : AC-3
Формат/Информация : Audio Coding 3
Расширение режима : CM (complete main)
Параметр Endianness формата : Big
Идентификатор кодека : A_AC3
Продолжительность : 2 ч. 6 м.
Вид битрейта : Постоянный
Битрейт : 640 Кбит/сек
Каналы : 6 каналов
Расположение каналов : Front: L C R, Side: L R, LFE
Частота : 48,0 КГц
Битовая глубина : 16 бит
Метод сжатия : С потерями
Размер потока : 580 Мбайт (2%)
Заголовок : AC3 5.1 / 640 kbps / Dub
Язык : Russian
Default : Да
Forced : Нет
Аудио #2
Идентификатор : 3
Формат : DTS
Формат/Информация : Digital Theater Systems
Идентификатор кодека : A_DTS
Продолжительность : 2 ч. 6 м.
Вид битрейта : Постоянный
Битрейт : 1510 Кбит/сек
Каналы : 6 каналов
Расположение каналов : Front: L C R, Side: L R, LFE
Частота : 48,0 КГц
Битовая глубина : 16 бит
Метод сжатия : С потерями
Размер потока : 1,34 Гбайт (5%)
Заголовок : DTS 5.1 / 1510 kbps / MVO - Киномания
Язык : Russian
Default : Нет
Forced : Нет
Аудио #3
Идентификатор : 4
Формат : DTS
Формат/Информация : Digital Theater Systems
Профиль формата : MA / Core
Идентификатор кодека : A_DTS
Продолжительность : 2 ч. 6 м.
Вид битрейта : Переменный
Битрейт : 2053 Кбит/сек / 1510 Кбит/сек
Каналы : 6 каналов
Расположение каналов : Front: L C R, Side: L R, LFE
Частота : 48,0 КГц
Битовая глубина : 16 бит
Метод сжатия : Без потерь / Lossy
Заголовок : DTS-HD MA 5.1 / 2232 kbps / DVO - П. Гланц и И. Королева
Язык : Russian
Default : Нет
Forced : Нет
Аудио #4
Идентификатор : 5
Формат : DTS
Формат/Информация : Digital Theater Systems
Профиль формата : MA / Core
Идентификатор кодека : A_DTS
Продолжительность : 2 ч. 6 м.
Вид битрейта : Переменный
Битрейт : 2053 Кбит/сек / 1510 Кбит/сек
Каналы : 6 каналов
Расположение каналов : Front: L C R, Side: L R, LFE
Частота : 48,0 КГц
Битовая глубина : 16 бит
Метод сжатия : Без потерь / Lossy
Заголовок : DTS-HD MA 5.1 / 2243 kbps / AVO - А. Гаврилов
Язык : Russian
Default : Нет
Forced : Нет
Аудио #5
Идентификатор : 6
Формат : AC-3
Формат/Информация : Audio Coding 3
Расширение режима : CM (complete main)
Параметр Endianness формата : Big
Идентификатор кодека : A_AC3
Продолжительность : 2 ч. 6 м.
Вид битрейта : Постоянный
Битрейт : 640 Кбит/сек
Каналы : 6 каналов
Расположение каналов : Front: L C R, Side: L R, LFE
Частота : 48,0 КГц
Битовая глубина : 16 бит
Метод сжатия : С потерями
Размер потока : 580 Мбайт (2%)
Заголовок : AC3 5.1 / 640 kbps / AVO - С. Рябов
Язык : Russian
Default : Нет
Forced : Нет
Аудио #6
Идентификатор : 7
Формат : AC-3
Формат/Информация : Audio Coding 3
Расширение режима : CM (complete main)
Параметр Endianness формата : Big
Идентификатор кодека : A_AC3
Продолжительность : 2 ч. 6 м.
Вид битрейта : Постоянный
Битрейт : 320 Кбит/сек
Каналы : 2 канала
Расположение каналов : Front: L R
Частота : 48,0 КГц
Битовая глубина : 16 бит
Метод сжатия : С потерями
Размер потока : 290 Мбайт (1%)
Заголовок : AC3 2.0 / 320 kbps / Dub
Язык : Ukrainian
Default : Нет
Forced : Нет
Аудио #7
Идентификатор : 8
Формат : DTS
Формат/Информация : Digital Theater Systems
Профиль формата : MA / Core
Идентификатор кодека : A_DTS
Продолжительность : 2 ч. 6 м.
Вид битрейта : Переменный
Битрейт : 2056 Кбит/сек / 1510 Кбит/сек
Каналы : 6 каналов
Расположение каналов : Front: L C R, Side: L R, LFE
Частота : 48,0 КГц
Битовая глубина : 16 бит
Метод сжатия : Без потерь / Lossy
Заголовок : DTS-HD MA 5.1 / 2230 kbps / Original
Язык : English
Default : Нет
Forced : Нет
Аудио #8
Идентификатор : 9
Формат : Vorbis
Параметр Floor формата : 1
Идентификатор кодека : A_VORBIS
Продолжительность : 2 ч. 6 м.
Вид битрейта : Переменный
Битрейт : 80,0 Кбит/сек
Каналы : 2 канала
Частота : 48,0 КГц
Метод сжатия : С потерями
Задержка видео : -42 мс.
Размер потока : 72,5 Мбайт (0%)
Заголовок : Vorbis 2.0 / 80 kbps / Commentary
Библиотека кодирования : libVorbis 1.1.1/1.1.2 (UTC 2005-03-04)
Язык : English
Default : Нет
Forced : Нет
Текст #1
Идентификатор : 10
Формат : UTF-8
Идентификатор кодека : S_TEXT/UTF8
Идентификатор кодека/Информация : UTF-8 Plain Text
Язык : Russian
Default : Нет
Forced : Нет
Текст #2
Идентификатор : 11
Формат : UTF-8
Идентификатор кодека : S_TEXT/UTF8
Идентификатор кодека/Информация : UTF-8 Plain Text
Язык : Ukrainian
Default : Нет
Forced : Нет
Текст #3
Идентификатор : 12
Формат : UTF-8
Идентификатор кодека : S_TEXT/UTF8
Идентификатор кодека/Информация : UTF-8 Plain Text
Язык : English
Default : Нет
Forced : Нет
Меню
00:00:00.000 : en:Act of Terrorism
00:06:20.755 : en:A Crime Investigation
00:15:32.681 : en:Claire Kachever
00:24:59.206 : en:Unique Time Constraints
00:30:20.235 : en:Snow White
00:38:37.356 : en:Who's Watching Her?
00:42:57.992 : en:That's Him
00:49:30.384 : en:Something Breached the Field
00:55:52.390 : en:Branching the Universe
00:59:57.385 : en:Out of Range
01:14:15.617 : en:Motive
01:20:37.999 : en:Four Days Ago
01:29:00.418 : en:They'd Never Believe You
01:42:49.371 : en:Change of Plans
01:54:41.416 : en:Have We Met?
01:58:06.621 : en:End Credits

Знаете ли вы, что...

  • Чтобы подчеркнуть реалистичность действия, Джерри Брукхаймер и Тони Скотт пригласили на площадку нескольких консультантов из Бюро по алкоголю, табаку и огнестрельному оружию — агентства, которое в реальной жизни ведёт расследование всех крупных терактов с использованием взрывчатых веществ. Оно, в частности, расследовало такие печальные события, как трагический подрыв здания Альфреда Э. Марра в Оклахоме и взрыв автомобиля у Всемирного торгового центра в 1993 году. Среди консультантов был и отставной сотрудник агентства Джерри Радден, который 20 лет занимался расследованием подобных масштабных инцидентов.
  • Особенно тяжело пришлось Джиму Кэвизелу, играющему главного подозреваемого во взрыве, Урстадта. В одной захватывающей сцене Урстадта сбивает машина; на съёмках эта ситуация была смоделирована с потрясающей реалистичностью: перед этим Кэвизела, ради его же безопасности, разместили в стальной клетке. Актёр вспоминает: «Меня посадили в клетку, затем на меня понеслись две машины. Мне пришлось собрать всю волю в кулак, чтобы не отказаться. Я думал только об одном: если клетка не выдержит — прощайте, ноги».
  • Кэвизелу также пришлось стрелять из автоматов МР-5, что требует особой физической подготовки. Перед съёмками он тренировался с сотрудниками Агентства, которые дали ему ощутить в полной мере мощь этого оружия, снабдив его боевыми патронами.
  • Между тем, начинающей актрисе Поле Паттон довелось не только побыть связанной с кляпом во рту, избитой и засунутой в чёрный мешок на молнии, но и сниматься в глубине предательских вод реки Миссисипи, с 5-фунтовым автомобильным рулем, привязанным к рукам.
  • Большинство сцен погони снято на мосту через Миссисипи, который соединяет западный и восточный берега Нового Орлеана. Высота моста — около 100 метров, поэтому никаких ошибок быть не могло, особенно при столкновении машин. Координатор трюков Чак Пичерни Stunts Unlimited комментирует: «Всё должно было быть проделано чётко. Мы должны были сделать погоню на мосту увлекательной, но в то же время не забыть о безопасности и о том, что мы перекрываем такую важную городскую артерию. Думаю, количество людей, работающих над постановкой трюков, включая местных водителей и профессиональных каскадёров иногда доходило до 50-и человек».
  • На съёмках применялась камера Time Track производства Digital Air, часто использующаяся в кино для создания эффекта «замороженного движения». При съёмке интерьеров в доме Клер каждое движение Полы Пэттон оставляет за собой след, что создаёт изумительный призрачный эффект, как будто эту сцену снимали 160 объективов, выстроенных в ряд. Камера Lydar, разработанная для военных нужд, использовалась для сканирования помещений — например, дома Клер — и построения диаграмм, выводящихся на экраны в лаборатории. Технология Lydar не может сканировать людей, поэтому Тони Скотт попросил компанию Asylum, делавшую спецэффекты для фильма, создать компьютерную версию проекции человека. Компания Asylum создала для картины 100 дополнительных планов с визуальными эффектами.
  • Кроме этого, при съёмках использовался ряд военных технологий — таких, как Infrared, Thermal Imaging и Heat Impulse; благодаря им действие стало ещё более реалистичным.
  • Предполагалось начать съёмки фильма в октябре 2005 года; после разрушения города ураганом «Катрина» проект был поставлен на грань закрытия. После возобновления проекта «Дежа вю» стал первым фильмом, съёмки которого начались в разрушенном городе.
  • Премьера фильма в России предварительно была намечена на 28 декабря 2006 года.
  • Идея фильма была частично позаимствована из романа Орсона Скотта Карда «Искупление Христофора Колумба», описывающий две различные истории человечества, в обоих из которых созданы организации по просмотру исторических событий. Некоторые из членов этих организаций решают лично изменить прошлое и совершают прыжок.
  • Билл Марсиани начал писать сценарий фильма еще в 1997 году.
Скриншоты:
       
       
Other forum [Profile] [PM]
Display posts from previous:    
Reply to topic

The time now is: Today 10:22

All times are GMT + 3 Hours



You cannot post new topics in this forum
You cannot reply to topics in this forum
You cannot edit your posts in this forum
You cannot delete your posts in this forum
You cannot vote in polls in this forum
You cannot attach files in this forum
You cannot download files in this forum