Today is a free download without charge Download

Матрица Революция / The Matrix Revolutions (Энди Вачовски / Andy Wachowski, Лана Вачовски / Lana Wachowski) [2003, США, фантастика, боевик, триллер, HDTV 1080i] Dub + MVO + DVO + AVO + Original Eng + Sub Rus, Eng

Reply to topic
 
Author
Message

Omen ®

Longevity: 8 years 5 months

Posts: 181087

Торрент-статистика

Post 09-Jun-2013 08:18

[Quote]

Матрица Революция / The Matrix Revolutions
Страна: США
Жанр: фантастика, боевик, триллер
Год выпуска: 2003
Продолжительность: 02:09:15
Перевод 1: профессиональный (дублированный)
Перевод 2: многоголосый закадровый
Перевод 3: двухголосый закадровый (Гланц и Королёва)
Перевод 4: одноголосый закадровый (Гаврилов)
Cубтитры: русские, английские
Оригинальная аудиодорожка: английский
Режиссер: Энди Вачовски / Andy Wachowski, Лана Вачовски / Lana Wachowski
В ролях: Киану Ривз, Хьюго Уивинг, Кэрри-Энн Мосс, Лоуренс Фишборн, Моника Беллуччи, Джада Пинкетт Смит, Колин Чоу, Мэри Элиз, Танвир К. Атвал, Гельмут Бакаитис, Кейт Бихан, Френсин Белл, Рэйчел Блэкман, Генри Блейсингейм, Йен Блисс, Дэвид Бауэр, Зик Кастелли, Эсси Дэвис, Нона М. Гайе, Дион Хорстман
Описание: Агент Смит уже не контролируется Матрицей и может делать что посчитает нужным. Этот злобный враг людей стал ещё сильнее и преследует свои интересы используя все средства, когда подземный город Зион подвергается массированному вторжению машин, и только Нео способен решить проблему и остановить этот бардак.
Тип релиза: HDTV 1080i
Контейнер: MKV
Сэмпл: скачать
Видео: AVC/x264, 1920x1080 (16:9), 12100kbps, 24fps
Аудио1: AC3 6ch, 48kHz, 640kbps, русский (дубляж)
Аудио2: DTS 6ch, 48kHz, 1510kbps, русский (многоголосый закадровый)
Аудио3: DTS 6ch, 48kHz, 1510kbps, русский (двухголосый закадровый) Гланц и Королёва
Аудио4: DTS 6ch, 48kHz, 1510kbps, русский (одноголосый закадровый) Гаврилов
Аудио5: DTS 6ch, 48kHz, 1510kbps, английский (оригинал)

MediaInfo

Общее
Уникальный идентификатор : 251391058712683111170289881238400172710 (0xBD2028223FB75C59AB47D8F64CAC82A6)
Полное имя : Matrix.Revolutions.2003.x264.HDTV.mkv
Формат : Matroska
Версия формата : Version 2
Размер файла : 17,3 Гбайт
Продолжительность : 2 ч. 9 м.
Режим общего битрейта : Переменный
Общий поток : 19,1 Мбит/сек
Дата кодирования : UTC 2013-06-09 02:29:57
Программа кодирования : mkvmerge v5.5.0 ('Healer') built on Apr 6 2012 21:43:24
Библиотека кодирования : libebml v1.2.3 + libmatroska v1.3.0
Видео
Идентификатор : 1
Формат : AVC
Формат/Информация : Advanced Video Codec
Профиль формата : [email protected]
Параметр CABAC формата : Да
Параметр ReFrames формата : 2 кадра
Идентификатор кодека : V_MPEG4/ISO/AVC
Продолжительность : 2 ч. 9 м.
Вид битрейта : Переменный
Битрейт : 12,1 Мбит/сек
Максимальный битрейт : 20,0 Мбит/сек
Ширина : 1920 пикселей
Высота : 1080 пикселей
Соотношение сторон : 16:9
Режим частоты кадров : Постоянный
Частота кадров : 24,000 кадра/сек
Цветовое пространство : YUV
Субдискретизация насыщенности : 4:2:0
Битовая глубина : 8 бит
Тип развёртки : Прогрессивная
Бит/(Пиксели*Кадры) : 0.243
Размер потока : 10,9 Гбайт (63%)
Заголовок : Matrix Revolutions 2003 HDTV
Default : Да
Forced : Нет
Аудио #1
Идентификатор : 2
Формат : AC-3
Формат/Информация : Audio Coding 3
Расширение режима : CM (complete main)
Параметр Endianness формата : Big
Идентификатор кодека : A_AC3
Продолжительность : 2 ч. 9 м.
Вид битрейта : Постоянный
Битрейт : 640 Кбит/сек
Каналы : 6 каналов
Расположение каналов : Front: L C R, Side: L R, LFE
Частота : 48,0 КГц
Битовая глубина : 16 бит
Метод сжатия : С потерями
Размер потока : 592 Мбайт (3%)
Заголовок : Rus AC3 6ch 48kHz - 640 kbps - 16bit (DUB)
Язык : Russian
Default : Да
Forced : Нет
Аудио #2
Идентификатор : 3
Формат : DTS
Формат/Информация : Digital Theater Systems
Режим : 16
Параметр Endianness формата : Big
Идентификатор кодека : A_DTS
Продолжительность : 2 ч. 9 м.
Вид битрейта : Постоянный
Битрейт : 1510 Кбит/сек
Каналы : 6 каналов
Расположение каналов : Front: L C R, Side: L R, LFE
Частота : 48,0 КГц
Битовая глубина : 24 бит
Метод сжатия : С потерями
Размер потока : 1,36 Гбайт (8%)
Заголовок : Rus DTS 6ch 48kHz - 1510 kbps - 24bit (MVO)
Язык : Russian
Default : Нет
Forced : Нет
Аудио #3
Идентификатор : 4
Формат : DTS
Формат/Информация : Digital Theater Systems
Режим : 16
Параметр Endianness формата : Big
Идентификатор кодека : A_DTS
Продолжительность : 2 ч. 9 м.
Вид битрейта : Постоянный
Битрейт : 1510 Кбит/сек
Каналы : 6 каналов
Расположение каналов : Front: L C R, Side: L R, LFE
Частота : 48,0 КГц
Битовая глубина : 24 бит
Метод сжатия : С потерями
Размер потока : 1,36 Гбайт (8%)
Заголовок : Rus DTS 6ch 48kHz - 1510 kbps - 24bit (DVO) Гланц и Королёва
Язык : Russian
Default : Нет
Forced : Нет
Аудио #4
Идентификатор : 5
Формат : DTS
Формат/Информация : Digital Theater Systems
Режим : 16
Параметр Endianness формата : Big
Идентификатор кодека : A_DTS
Продолжительность : 2 ч. 9 м.
Вид битрейта : Постоянный
Битрейт : 1510 Кбит/сек
Каналы : 6 каналов
Расположение каналов : Front: L C R, Side: L R, LFE
Частота : 48,0 КГц
Битовая глубина : 24 бит
Метод сжатия : С потерями
Размер потока : 1,36 Гбайт (8%)
Заголовок : Rus DTS 6ch 48kHz - 1510 kbps - 24bit (AVO) Гаврилов
Язык : Russian
Default : Нет
Forced : Нет
Аудио #5
Идентификатор : 6
Формат : DTS
Формат/Информация : Digital Theater Systems
Режим : 16
Параметр Endianness формата : Big
Идентификатор кодека : A_DTS
Продолжительность : 2 ч. 9 м.
Вид битрейта : Постоянный
Битрейт : 1510 Кбит/сек
Каналы : 6 каналов
Расположение каналов : Front: L C R, Side: L R, LFE
Частота : 48,0 КГц
Битовая глубина : 24 бит
Метод сжатия : С потерями
Размер потока : 1,36 Гбайт (8%)
Заголовок : DTS 6ch 48kHz - 1510 kbps - 24bit (ORIGINAL)
Язык : English
Default : Нет
Forced : Нет
Текст #1
Идентификатор : 7
Формат : UTF-8
Идентификатор кодека : S_TEXT/UTF8
Идентификатор кодека/Информация : UTF-8 Plain Text
Заголовок : Rus Text - UTF-8
Язык : Russian
Default : Нет
Forced : Нет
Текст #2
Идентификатор : 8
Формат : UTF-8
Идентификатор кодека : S_TEXT/UTF8
Идентификатор кодека/Информация : UTF-8 Plain Text
Заголовок : Eng Text - UTF-8
Язык : English
Default : Нет
Forced : Нет

Скриншоты


(-> Первая часть Вторая часть
Other forum [Profile] [PM]
Display posts from previous:    
Reply to topic

The time now is: Today 10:16

All times are GMT + 3 Hours



You cannot post new topics in this forum
You cannot reply to topics in this forum
You cannot edit your posts in this forum
You cannot delete your posts in this forum
You cannot vote in polls in this forum
You cannot attach files in this forum
You cannot download files in this forum