Today is a free download without charge Download

Супер / Super (Джеймс Ганн / James Gunn) [2010, США, боевик, драма, комедия, BDRip 720p] MVO (НТВ+) + AVO (Карповский) + Original (Eng) + Sub (Rus, Eng)

Reply to topic
 
Author
Message

Omen ®

Longevity: 8 years 5 months

Posts: 181087

Торрент-статистика

Post 09-Jun-2013 02:48

[Quote]

Супер / Super
«Заткнись, криминал!»
Выпущено: США, Ambush Entertainment
Жанр: боевик, драма, комедия
Год выпуска: 2010
Продолжительность: 01:36:06-Перевод #1: Профессиональный (многоголосый закадровый) [НТВ+]
Перевод #2: Авторский (одноголосый закадровый) [А. Карповский]
Оригинальная аудиодорожка: английская
Cубтитры: русские, английские-Режиссер: Джеймс Ганн
В ролях: Рэйн Уилсон, Эллен Пейдж, Лив Тайлер, Кевин Бейкон, Грегг Генри, Майкл Рукер, Андре Ройо, Шон Ганн, Стефен Блекхарт, Линда Карделлини-О фильме: Главный герой Фрэнк — обычный парень. После того как его жену соблазняет драгдилер, бедняга воображает себя супергероем, а отсутствие суперспособностей успешно компенсирует, вооружившись гаечным ключом.- -Формат: MKV (x264)
Качество: BDRip 720p [DON]
Видео: 5085 kb/s, 1280x692, 23.976 fps, 1.85:1
Аудио #1: AC3, 384 kb/s, 6 ch, 48 КГц, 16 бит [НТВ+]
Аудио #2: DTS, 1536 kb/s, 6 ch, 48 КГц, 24 бит [А. Карповский]
Аудио #3: DTS, 1536 kb/s, 6 ch, 48 КГц, 24 бит [Оригинал]

Скриншоты

MediaInfo

Код:
Формат                                   : Matroska
Версия формата                           : Version 4 / Version 2
Размер файла                             : 5,70 Гбайт
Продолжительность                        : 1 ч. 36 м.
Общий поток                              : 8489 Кбит/сек
Дата кодирования                         : UTC 2013-06-08 21:36:32
Программа кодирования                    : mkvmerge v6.1.0 ('Old Devil') built on Mar  2 2013 14:32:37
Библиотека кодирования                   : libebml v1.3.0 + libmatroska v1.4.0
Видео
Идентификатор                            : 1
Формат                                   : AVC
Формат/Информация                        : Advanced Video Codec
Профиль формата                          : [email protected]
Параметр CABAC формата                   : Да
Параметр ReFrames формата                : 4 кадра
Идентификатор кодека                     : V_MPEG4/ISO/AVC
Продолжительность                        : 1 ч. 36 м.
Битрейт                                  : 5085 Кбит/сек
Ширина                                   : 1280 пикселей
Высота                                   : 692 пикселя
Соотношение сторон                       : 1,85:1
Режим частоты кадров                     : Постоянный
Частота кадров                           : 23,976 кадра/сек
Цветовое пространство                    : YUV
Субдискретизация насыщенности            : 4:2:0
Битовая глубина                          : 8 бит
Тип развёртки                            : Прогрессивная
Бит/(Пиксели*Кадры)                      : 0.239
Размер потока                            : 3,30 Гбайт (58%)
Библиотека кодирования                   : x264 core 116 r2019 9cc407d
Настройки программы                      : cabac=1 / ref=4 / deblock=1:-3:-3 / analyse=0x3:0x113 / me=umh / subme=9 / psy=1 / psy_rd=0.90:0.00 / mixed_ref=1 / me_range=24 / chroma_me=1 / trellis=2 / 8x8dct=1 / cqm=0 / deadzone=21,11 / fast_pskip=1 / chroma_qp_offset=-2 / threads=3 / sliced_threads=0 / nr=0 / decimate=0 / interlaced=0 / bluray_compat=0 / constrained_intra=0 / bframes=7 / b_pyramid=2 / b_adapt=2 / b_bias=0 / direct=3 / weightb=1 / open_gop=0 / weightp=2 / keyint=250 / keyint_min=23 / scenecut=40 / intra_refresh=0 / rc=2pass / mbtree=0 / bitrate=5085 / ratetol=1.0 / qcomp=0.60 / qpmin=0 / qpmax=69 / qpstep=4 / cplxblur=20.0 / qblur=0.5 / ip_ratio=1.40 / pb_ratio=1.30 / aq=1:0.60
Default                                  : Нет
Forced                                   : Нет
Аудио #1
Идентификатор                            : 2
Формат                                   : AC-3
Формат/Информация                        : Audio Coding 3
Расширение режима                        : CM (complete main)
Параметр Endianness формата              : Big
Идентификатор кодека                     : A_AC3
Продолжительность                        : 1 ч. 36 м.
Вид битрейта                             : Постоянный
Битрейт                                  : 384 Кбит/сек
Каналы                                   : 6 каналов
Расположение каналов                     : Front: L C R, Side: L R, LFE
Частота                                  : 48,0 КГц
Битовая глубина                          : 16 бит
Метод сжатия                             : С потерями
Размер потока                            : 264 Мбайт (5%)
Заголовок                                : MVO, NTV+
Язык                                     : Russian
Default                                  : Да
Forced                                   : Нет
Аудио #2
Идентификатор                            : 3
Формат                                   : DTS
Формат/Информация                        : Digital Theater Systems
Режим                                    : 16
Параметр Endianness формата              : Big
Идентификатор кодека                     : A_DTS
Продолжительность                        : 1 ч. 36 м.
Вид битрейта                             : Постоянный
Битрейт                                  : 1509 Кбит/сек
Каналы                                   : 6 каналов
Расположение каналов                     : Front: L C R, Side: L R, LFE
Частота                                  : 48,0 КГц
Битовая глубина                          : 24 бит
Метод сжатия                             : С потерями
Размер потока                            : 1,01 Гбайт (18%)
Заголовок                                : AVO, Karpovski
Язык                                     : Russian
Default                                  : Нет
Forced                                   : Нет
Аудио #3
Идентификатор                            : 4
Формат                                   : DTS
Формат/Информация                        : Digital Theater Systems
Режим                                    : 16
Параметр Endianness формата              : Big
Идентификатор кодека                     : A_DTS
Продолжительность                        : 1 ч. 36 м.
Вид битрейта                             : Постоянный
Битрейт                                  : 1509 Кбит/сек
Каналы                                   : 6 каналов
Расположение каналов                     : Front: L C R, Side: L R, LFE
Частота                                  : 48,0 КГц
Битовая глубина                          : 24 бит
Метод сжатия                             : С потерями
Размер потока                            : 1,01 Гбайт (18%)
Язык                                     : English
Default                                  : Нет
Forced                                   : Нет
Текст #1
Идентификатор                            : 5
Формат                                   : UTF-8
Идентификатор кодека                     : S_TEXT/UTF8
Идентификатор кодека/Информация          : UTF-8 Plain Text
Язык                                     : Russian
Default                                  : Нет
Forced                                   : Нет
Текст #2
Идентификатор                            : 6
Формат                                   : UTF-8
Идентификатор кодека                     : S_TEXT/UTF8
Идентификатор кодека/Информация          : UTF-8 Plain Text
Язык                                     : English
Default                                  : Нет
Forced                                   : Нет
Меню
00:00:00.000                             : en:00:00:00.000
00:07:51.971                             : en:00:07:51.971
00:14:48.304                             : en:00:14:48.304
00:22:46.282                             : en:00:22:46.282
00:31:10.827                             : en:00:31:10.827
00:38:12.874                             : en:00:38:12.874
00:46:01.968                             : en:00:46:01.968
00:53:00.260                             : en:00:53:00.260
01:00:44.140                             : en:01:00:44.140
01:07:53.611                             : en:01:07:53.611
01:14:57.910                             : en:01:14:57.910
01:21:08.197                             : en:01:21:08.197
01:27:41.715                             : en:01:27:41.715
01:31:37.492                             : en:01:31:37.492
Other forum [Profile] [PM]
Similar theme
Forum Topic Author Torrent Replies Last Post
./templates/default/images/folder_dl.gif Мультимедийные приложения Александр Заботкин | Супер Premier Pro 2 (2017) [unpacked] }{@R0N
1 | 0

0 | 39

12

2017-12-24 19:57
}{@R0N Latest
Display posts from previous:    
Reply to topic

The time now is: Today 10:38

All times are GMT + 3 Hours



You cannot post new topics in this forum
You cannot reply to topics in this forum
You cannot edit your posts in this forum
You cannot delete your posts in this forum
You cannot vote in polls in this forum
You cannot attach files in this forum
You cannot download files in this forum