Today is a free download without charge Download

Последнее изгнание дьявола: Второе пришествие / The Last Exorcism Part II (Эд Гасс-Доннели / Ed Gass-Donnelly) [2013, США, ужасы, триллер, BDRip 720p] [расширенная] VO (перевод MartinaG / озвучка Doctor Joker) + Sub Rus + Original Eng

Reply to topic
 
Author
Message

Omen ®

Longevity: 8 years 5 months

Posts: 181087

Торрент-статистика

Post 08-Jun-2013 18:03

[Quote]

Последнее изгнание дьявола: Второе пришествие / The Last Exorcism Part II / расширенная
Страна: США
Жанр: ужасы, триллер
Год выпуска: 2013
Продолжительность: 01:30:22
Перевод: Одноголосый закадровый перевод MartinaG / озвучка Doctor_Joker
Cубтитры: русские
Оригинальная аудиодорожка: английский
Режиссер: Эд Гасс-Доннели / Ed Gass-Donnelly
В ролях: Эшли Белл, Джулия Гарнер, Спенсер Трит Кларк, Дэвид Дженсен, Тара Риггз, Луис Хертэм, Мьюз Уотсон, Эрика Мишель, Шэрис А. Уильямс, Бояна Бальта
Описание: Нелл находят в лесу — грязную и напуганную, только что сбежавшую со страшного ритуала. Вся ее семья погибла и девушку отправляют в Новый Орлеан — приют для девочек. Там она попадает под присмотр терапевта Фрэнка Мерле. Жизнь вроде бы налаживается, Нелл влюбляется в местного мальчика, но в самый неподходящий момент демон вновь объявляется и овладевает Нелл. Теперь он хочет от нее нечто большее…
Доп. информация: Работа со звуком Perevodman
Сэмпл: http://multi-up.com/872606
Качество видео: BDRip
Формат видео: MKV
Видео: 5475 Кбит/сек, 1280*528 (2:40:1) 23,976 Кадра/сек, AVC
Аудио: 448 Кбит/сек, 48,0 КГц, 16 бит, 6 каналов, АС-3
Аудио 2: 448 Кбит/сек, 48,0 КГц, 16 бит, 6 каналов, АС-3
Формат субтитров: softsub (SRT)

MediaInfo

Общее
Уникальный идентификатор : 203055547847936403711962515313152797048 (0x98C31374914AA7A49E4320BC3FF4A978)
Полное имя : E:\МОНТАЖ\the.last.exorcism.part.ii.2013.unrated.720p.bluray.x264.mkv
Формат : Matroska
Версия формата : Version 4 / Version 2
Размер файла : 3,98 Гбайт
Продолжительность : 1 ч. 30 м.
Общий поток : 6304 Кбит/сек
Дата кодирования : UTC 2013-06-05 07:53:07
Программа кодирования : mkvmerge v6.0.0 ('Coming Up For Air') built on Jan 20 2013 09:52:00
Библиотека кодирования : libebml v1.3.0 + libmatroska v1.4.0
Видео
Идентификатор : 1
Формат : AVC
Формат/Информация : Advanced Video Codec
Профиль формата : [email protected]
Параметр CABAC формата : Да
Параметр ReFrames формата : 5 кадров
Идентификатор кодека : V_MPEG4/ISO/AVC
Продолжительность : 1 ч. 30 м.
Битрейт : 5475 Кбит/сек
Ширина : 1280 пикселей
Высота : 528 пикселей
Соотношение сторон : 2,40:1
Режим частоты кадров : Постоянный
Частота кадров : 23,976 кадра/сек
Цветовое пространство : YUV
Субдискретизация насыщенности : 4:2:0
Битовая глубина : 8 бит
Тип развёртки : Прогрессивная
Бит/(Пиксели*Кадры) : 0.338
Размер потока : 3,33 Гбайт (84%)
Библиотека кодирования : x264 core 133 r2334 a3ac64b
Настройки программы : cabac=1 / ref=5 / deblock=1:0:0 / analyse=0x3:0x133 / me=umh / subme=7 / psy=1 / psy_rd=1.00:0.00 / mixed_ref=1 / me_range=16 / chroma_me=1 / trellis=1 / 8x8dct=1 / cqm=0 / deadzone=21,11 / fast_pskip=0 / chroma_qp_offset=-2 / threads=12 / lookahead_threads=2 / sliced_threads=0 / nr=0 / decimate=1 / interlaced=0 / bluray_compat=0 / constrained_intra=0 / bframes=3 / b_pyramid=2 / b_adapt=1 / b_bias=0 / direct=1 / weightb=1 / open_gop=0 / weightp=2 / keyint=250 / keyint_min=23 / scenecut=40 / intra_refresh=0 / rc_lookahead=40 / rc=2pass / mbtree=1 / bitrate=5475 / ratetol=1.0 / qcomp=0.60 / qpmin=0 / qpmax=69 / qpstep=4 / cplxblur=20.0 / qblur=0.5 / ip_ratio=1.40 / aq=1:1.00
Язык : English
Default : Да
Forced : Нет
Аудио #1
Идентификатор : 2
Формат : AC-3
Формат/Информация : Audio Coding 3
Расширение режима : CM (complete main)
Параметр Endianness формата : Big
Идентификатор кодека : A_AC3
Продолжительность : 1 ч. 30 м.
Вид битрейта : Постоянный
Битрейт : 448 Кбит/сек
Каналы : 6 каналов
Расположение каналов : Front: L C R, Side: L R, LFE
Частота : 48,0 КГц
Битовая глубина : 16 бит
Метод сжатия : С потерями
Размер потока : 290 Мбайт (7%)
Default : Да
Forced : Нет
Аудио #2
Идентификатор : 4
Формат : AC-3
Формат/Информация : Audio Coding 3
Расширение режима : CM (complete main)
Параметр Endianness формата : Big
Идентификатор кодека : A_AC3
Продолжительность : 1 ч. 30 м.
Вид битрейта : Постоянный
Битрейт : 448 Кбит/сек
Каналы : 6 каналов
Расположение каналов : Front: L C R, Side: L R, LFE
Частота : 48,0 КГц
Битовая глубина : 16 бит
Метод сжатия : С потерями
Размер потока : 290 Мбайт (7%)
Default : Нет
Forced : Нет
Текст
Идентификатор : 3
Формат : UTF-8
Идентификатор кодека : S_TEXT/UTF8
Идентификатор кодека/Информация : UTF-8 Plain Text
Default : Да
Forced : Нет
Меню
00:00:00.000 : en:00:00:00.000
00:06:12.622 : en:00:06:12.622
00:11:26.019 : en:00:11:26.019
00:14:43.299 : en:00:14:43.299
00:19:38.886 : en:00:19:38.886
00:24:59.790 : en:00:24:59.790
00:31:17.542 : en:00:31:17.542
00:37:41.426 : en:00:37:41.426
00:43:02.580 : en:00:43:02.580
00:47:13.539 : en:00:47:13.539
00:52:04.246 : en:00:52:04.246
00:57:30.906 : en:00:57:30.906
01:03:30.140 : en:01:03:30.140
01:09:57.485 : en:01:09:57.485
01:14:28.756 : en:01:14:28.756
01:21:00.189 : en:01:21:00.189

Скриншот c названием фильма

Скриншоты



Other forum [Profile] [PM]
Similar theme
Forum Topic Author Torrent Replies Last Post
./templates/default/images/folder_dl.gif Современная проза, классика, поэзия Гюго Виктор - Последний день приговоренного к смерти [Алексей Ковалёнок, (ЛИ), 2013 г., 96 kbps, MP3] Omen
1 | 0

0 | 347

0

2015-02-22 15:33
Omen Latest
./templates/default/images/folder_dl.gif Новинки (HD|DVD|BD|WEB|TV|SAT|PDTV|-Rip) Последняя капля / On the Rocks (София Коппола) [2020 г., драма, комедия, приключения,WEB-DLRip ] DUB | Apple TV+ kilmister777
1 | 0

0 | 933

0

2020-10-27 08:35
kilmister777 Latest
Display posts from previous:    
Reply to topic

The time now is: Today 11:23

All times are GMT + 3 Hours



You cannot post new topics in this forum
You cannot reply to topics in this forum
You cannot edit your posts in this forum
You cannot delete your posts in this forum
You cannot vote in polls in this forum
You cannot attach files in this forum
You cannot download files in this forum