Today is a free download without charge Download

Limp Bizkit - Rock am Ring 2013 [2013, Nu-metal, Alternative, Rapcore, HDTVRip 720p]

Reply to topic
 
Author
Message

Omen ®

Longevity: 8 years 4 months

Posts: 181087

Торрент-статистика

Post 08-Jun-2013 18:03

[Quote]

Limp Bizkit - Rock am Ring 2013
Жанр: Nu-metal, Alternative, Rapcore
Продолжительность: 1h 13mn
Год выпуска: 2013
Сетлист:
01. Rollin'
02. Hot Dog
03. My Generation
04. Livin' It Up
05. My Way
06. Medley (Metallica/Megadeth/Guns N Roses/Pearl Jam)
07. Smells Like Teen Spirit (Nirvana cover)
08. Re-Arranged
09. Killing In The Name (Rage Against The Machine cover)
10. Faith (George Michael cover)
11. Behind Blue Eyes (The Who cover)
12. Boiler
13. Eat You Alive
14. Take A Look Around
15. Break Stuff
Качество: HDTVRip 720p
Контейнер: MKV
Видео кодек: H.264
Аудио кодек: AC3
Видео: AVC, 1280x720, 4 100 Kbps, 16:9, 25 fps
Аудио: AC3, 448 Kbps, 44.1 KHz, 2 channels

Отчёт MediaInfo / BDInfo

GeneralComplete name : P:\Live\Limp Bizkit - Rock am Ring 2013.mkvFormat : MatroskaFile size : 2.34 GiBDuration : 1h 13mnOverall bit rate : 4 536 KbpsEncoded date : UTC 2013-06-08 11:16:48Writing application : mkvmerge v2.4.0 ('Fumbling Towards Ecstasy') built on Oct 11 2008 20:13:15Writing library : libebml v0.7.7 + libmatroska v0.8.1
VideoID : 1Format : AVCFormat/Info : Advanced Video CodecFormat profile : [email protected] settings, CABAC : NoFormat settings, ReFrames : 1 frameMuxing mode : Container [email protected] ID : V_MPEG4/ISO/AVCDuration : 1h 13mnBit rate : 3 998 KbpsNominal bit rate : 4 100 KbpsWidth : 1 280 pixelsHeight : 720 pixelsDisplay aspect ratio : 16/9Frame rate : 25.000 fpsResolution : 24 bitsColorimetry : 4:2:0Scan type : ProgressiveBits/(Pixel*Frame) : 0.174Stream size : 2.06 GiB (88%)Writing library : x264 core 80 r1378+57 6f6b50aEncoding settings : cabac=0 / ref=1 / deblock=1:0:0 / analyse=0x3:0x113 / me=hex / subme=7 /
psy=1 / psy_rd=1.0:0.0 / mixed_ref=0 / me_range=16 / chroma_me=1 / trellis=0 / 8x8dct=1 / cqm=0 /
deadzone=21,11 / fast_pskip=1 / chroma_qp_offset=-2 / threads=3 / sliced_threads=0 / nr=0 / decimate=1 /
mbaff=0 / constrained_intra=0 / bframes=0 / wpredp=2 / keyint=250 / keyint_min=25 / scenecut=40 /
rc_lookahead=40 / rc=abr / mbtree=1 / bitrate=4100 / ratetol=1.0 / qcomp=0.60 / qpmin=10 / qpmax=51 / qpstep=4
/ ip_ratio=1.40 / aq=1:1.00
AudioID : 2Format : AC-3Format/Info : Audio Coding 3Codec ID : A_AC3Duration : 1h 13mnBit rate mode : ConstantBit rate : 448 KbpsChannel(s) : 2 channelsChannel positions : L RSampling rate : 44.1 KHzStream size : 237 MiB (10%)

Скриншоты

Other forum [Profile] [PM]
Display posts from previous:    
Reply to topic

The time now is: Today 13:31

All times are GMT + 3 Hours



You cannot post new topics in this forum
You cannot reply to topics in this forum
You cannot edit your posts in this forum
You cannot delete your posts in this forum
You cannot vote in polls in this forum
You cannot attach files in this forum
You cannot download files in this forum