Today is a free download without charge Download

Парк Горького / Gorky Park (Майкл Эптид) (Триллер, драма, криминал, 1983) HDTVRip [720p]

Reply to topic
 
Author
Message

Omen ®

Longevity: 8 years 5 months

Posts: 181087

Торрент-статистика

Post 08-Jun-2013 15:09

[Quote]

Парк Горького / Gorky Park (1983) HDTVRip [720p]- Русское название: Парк Горького
Оригинальное название: Gorky Park
Год выпуска: 1983
Жанр: Триллер, драма, криминал
Описание фильма:
В Москве, в парке имени Горького, находят три трупа с изуродованными до неузнаваемости лицами и удаленными пальцами. Следователь Аркадий Ренко получает задание: установить личность убитых и найти убийцу. Мало-помалу обстоятельства дела проясняются, и улики все явственнее указывают на причастность к убийству КГБ. У бывалого оперативника возникает сильное искушение - закрыть дело. Но вскоре он узнает, что к убийству причастна и его любимая женщина, Ирина Асанова. Преследуемый КГБ, преодолевая сети обмана и предательства, тянущиеся к самой вершине политического Олимпа, Ренко решает не останавливатьсяни перед чем и привлечь убийц к суду - даже ценой собственной судьбы и любви.
Режиссер: Майкл Эптид
Актеры: Уильям Хёрт, Ли Марвин, Джоанна Пакула, Иэн Бэннен, Майкл Элфик, Брайан Деннехи, Ричард Гриффитс, Александр Нокс, Рикки Фултон, Алексей Сейл, Иэн МакДайармид
Продолжительность: 02:08:37
Перевод: Профессиональный двуголосый, Авторский одноголосый
Субтитры: отсутствуют

Дата мировой премьеры: 15.12.1983
Видеокодек: MPEG-4 AVC/H.264
Битрейт видео: ~6500 kb/s
Размер кадра: 1280 x 688
Качество видео: HDTVRip
Аудио 1. Русский: AC3, 2 ch, 192 Кбит/с - Профессиональный двуголосый
Аудио 2. Русский: AC3, 2 ch, 192 Кбит/с - Авторский одноголосый (А.Марченко)
Аудио 3. Русский: AC3, 2 ch, 192 Кбит/с - Авторский одноголосый (Г.Либергал)
Аудио 4. Английский: AC3, 2 ch, 192 Кбит/с - Оригинал

MediaINFO:

Код:
Уникальный идентификатор : 172892980681920892372022750326451515686 (0x8211FA13F41E1AAC96904024D97AB126)
Полное имя : Gorky.Park.(1983).HDTVRip.720p.x264.AC3.RUS.ENG.mkv
Формат : Matroska
Версия формата : Version 2
Размер файла : 6,53 Гбайт
Продолжительность : 2 ч. 8 м.
Общий поток : 7269 Кбит/сек
Название фильма : Gorky Park (1983) HDTVRip 720p
Дата кодирования : UTC 2011-09-01 11:20:45
Программа кодирования : mkvmerge v4.9.1 ('Ich will') сборка от Jul 11 2011 23:53:15
Библиотека кодирования : libebml v1.2.1 + libmatroska v1.1.1
Видео
Идентификатор : 1
Формат : AVC
Формат/Информация : Advanced Video Codec
Профиль формата : [url=mailto:[email protected]][email protected][/url]
Параметр CABAC формата : Да
Параметр ReFrames формата : 7 кадров
Идентификатор кодека : V_MPEG4/ISO/AVC
Продолжительность : 2 ч. 8 м.
Битрейт : 6500 Кбит/сек
Ширина : 1280 пикселей
Высота : 688 пикселей
Соотношение сторон : 1,860
Частота кадров : 23,976 кадра/сек
Цветовое пространство : YUV
Субдискретизация насыщенности : 4:2:0
Битовая глубина : 8 бит
Тип развёртки : Прогрессивная
Бит/(Пиксели*Кадры) : 0.308
Размер потока : 5,71 Гбайт (87%)
Библиотека кодирования : x264 core 115 r1995 c1e60b9
Настройки программы : cabac=1 / ref=7 / deblock=1:-1:-1 / analyse=0x3:0x113 / me=umh / subme=8 / psy=1 / psy_rd=1.00:0.00 / mixed_ref=1 / me_range=32 / chroma_me=1 / trellis=2 / 8x8dct=1 / cqm=0 / deadzone=21,11 / fast_pskip=0 / chroma_qp_offset=-2 / threads=6 / sliced_threads=0 / nr=0 / decimate=1 / interlaced=0 / bluray_compat=0 / constrained_intra=0 / bframes=5 / b_pyramid=2 / b_adapt=2 / b_bias=0 / direct=3 / weightb=1 / open_gop=0 / weightp=2 / keyint=250 / keyint_min=24 / scenecut=40 / intra_refresh=0 / rc=2pass / mbtree=0 / bitrate=6500 / ratetol=1.0 / qcomp=0.60 / qpmin=10 / qpmax=51 / qpstep=4 / cplxblur=20.0 / qblur=0.5 / ip_ratio=1.40 / pb_ratio=1.30 / aq=1:1.00
Аудио #1
Идентификатор : 2
Формат : AC-3
Формат/Информация : Audio Coding 3
Расширение режима : CM (complete main)
Идентификатор кодека : A_AC3
Продолжительность : 2 ч. 8 м.
Вид битрейта : Постоянный
Битрейт : 192 Кбит/сек
Каналы : 2 канала
Расположение каналов : Front: L R
Частота : 48,0 КГц
Битовая глубина : 16 бит
Размер потока : 177 Мбайт (3%)
Заголовок : DVO
Язык : Russian
Аудио #2
Идентификатор : 3
Формат : AC-3
Формат/Информация : Audio Coding 3
Расширение режима : CM (complete main)
Идентификатор кодека : A_AC3
Продолжительность : 2 ч. 8 м.
Вид битрейта : Постоянный
Битрейт : 192 Кбит/сек
Каналы : 2 канала
Расположение каналов : Front: L R
Частота : 48,0 КГц
Битовая глубина : 16 бит
Размер потока : 177 Мбайт (3%)
Заголовок : Либергал
Язык : Russian
Аудио #3
Идентификатор : 4
Формат : AC-3
Формат/Информация : Audio Coding 3
Расширение режима : CM (complete main)
Идентификатор кодека : A_AC3
Продолжительность : 2 ч. 8 м.
Вид битрейта : Постоянный
Битрейт : 192 Кбит/сек
Каналы : 2 канала
Расположение каналов : Front: L R
Частота : 48,0 КГц
Битовая глубина : 16 бит
Размер потока : 177 Мбайт (3%)
Заголовок : Марченко
Язык : Russian
Аудио #4
Идентификатор : 5
Формат : AC-3
Формат/Информация : Audio Coding 3
Расширение режима : CM (complete main)
Идентификатор кодека : A_AC3
Продолжительность : 2 ч. 8 м.
Вид битрейта : Постоянный
Битрейт : 192 Кбит/сек
Каналы : 2 канала
Расположение каналов : Front: L R
Частота : 48,0 КГц
Битовая глубина : 16 бит
Размер потока : 177 Мбайт (3%)
Заголовок : Original
Язык : English

Дополнительная информация:

Релиз от IVH
-Скриншоты:
         
-
Other forum [Profile] [PM]
Display posts from previous:    
Reply to topic

The time now is: Today 13:40

All times are GMT + 3 Hours



You cannot post new topics in this forum
You cannot reply to topics in this forum
You cannot edit your posts in this forum
You cannot delete your posts in this forum
You cannot vote in polls in this forum
You cannot attach files in this forum
You cannot download files in this forum