Today is a free download without charge Download

Утамаро и его пять женщин / Utamaro o meguru gonin no onna (Кэндзи Мидзогути / Kenji Mizoguchi) [1946, Япония, драма, BDRemux 1080p] DVO + Sub (Rus, Eng) + Original

Reply to topic
 
Author
Message

Omen ®

Longevity: 8 years 5 months

Posts: 181087

Торрент-статистика

Post 08-Jun-2013 13:58

[Quote]

Утамаро и его пять женщин / Utamaro o meguru gonin no onna
Страна: Япония
Жанр: драма
Год выпуска: 1946
Продолжительность: 01:34:53
Перевод: Профессиональный (двухголосый закадровый) студия "Инис"
Cубтитры: русские, английские
Оригинальная аудиодорожка: японский-Режиссер: Кэндзи Мидзогути / Kenji Mizoguchi
В ролях: Миносуке Бандо, Кинуё Танака, Котаро Бандо, Хироко Кавасаки, Тосико Иидзук, Киоко Кусадзима, Эйко Охара, Шотаро Накамура, Кинико Сиратао, Мимпеи Томимото
Описание: Утамаро, великий художник, который рисует и находит вдохновение в портретах красивых женщин, а так же женщин борделей Токио. Он видит вокруг себя мир страсти, любовниц и страстных женщин. Иногда его работа приносит ему большие неприятности.
IMDb || КиноПоиск-Тип релиза: BDRemux 1080p [Utamaro and His Five Women 1946 1080p Blu-ray-EA]
Контейнер: MKV
Видео: H.264/AVC, 1920x1080 at 23.976 fps, ~30000 kbps
Аудио#1: Russian: 48 kHz, AC3, 2/0 (L,R) ch, 192 kbps |Двухголосый закадровый|
Аудио#2: Japanese: 48 kHz, DTS-HD MA, 2/0 (L,R) ch, 1558 kbps (DTS Core: 2.0 / 48 kHz / 1509 kbps / 16-bit)
Формат субтитров: softsub (SRT)
Сэмпл

MediaInfo

Complete name : O:\Рутрекер\Утамаро и его пять женщин\Utamaro o meguru gonin no onna.1946.BDRemux.rutracker.mkv
Format : Matroska
Format version : Version 2
File size : 21.0 GiB
Duration : 1h 34mn
Overall bit rate mode : Variable
Overall bit rate : 31.8 Mbps
Movie name : rutracker
Encoded date : UTC 2013-06-07 00:23:34
Writing application : mkvmerge v5.0.1 ('Es ist Sommer') built on Nov 6 2011 16:23:40
Writing library : libebml v1.2.2 + libmatroska v1.3.0
Video
ID : 1
Format : AVC
Format/Info : Advanced Video Codec
Format profile : [email protected]
Format settings, CABAC : Yes
Format settings, ReFrames : 4 frames
Codec ID : V_MPEG4/ISO/AVC
Duration : 1h 34mn
Bit rate mode : Variable
Bit rate : 29.4 Mbps
Maximum bit rate : 35.0 Mbps
Width : 1 920 pixels
Height : 1 080 pixels
Display aspect ratio : 16:9
Frame rate : 23.976 fps
Standard : NTSC
Color space : YUV
Chroma subsampling : 4:2:0
Bit depth : 8 bits
Scan type : Progressive
Bits/(Pixel*Frame) : 0.591
Stream size : 19.5 GiB (92%)
Title : Utamaro o meguru gonin no onna.1946.BDRemux.rutracker
Language : Javanese
Default : Yes
Forced : No
Color primaries : BT.709-5, BT.1361, IEC 61966-2-4, SMPTE RP177
Transfer characteristics : BT.709-5, BT.1361
Matrix coefficients : BT.709-5, BT.1361, IEC 61966-2-4 709, SMPTE RP177
Audio #1
ID : 2
Format : AC-3
Format/Info : Audio Coding 3
Mode extension : CM (complete main)
Codec ID : A_AC3
Duration : 1h 34mn
Bit rate mode : Constant
Bit rate : 192 Kbps
Channel(s) : 2 channels
Channel positions : Front: L R
Sampling rate : 48.0 KHz
Bit depth : 16 bits
Compression mode : Lossy
Stream size : 130 MiB (1%)
Title : DVO |студия "Инис"|
Language : Russian
Default : Yes
Forced : No
Audio #2
ID : 3
Format : DTS
Format/Info : Digital Theater Systems
Format profile : MA / Core
Codec ID : A_DTS
Duration : 1h 34mn
Bit rate mode : Variable
Bit rate : 1 558 Kbps / 1 510 Kbps
Channel(s) : 2 channels
Channel positions : Front: L R
Sampling rate : 48.0 KHz
Bit depth : 16 bits
Compression mode : Lossless / Lossy
Language : Japanese
Default : No
Forced : No
Text #1
ID : 4
Format : UTF-8
Codec ID : S_TEXT/UTF8
Codec ID/Info : UTF-8 Plain Text
Language : Russian
Default : No
Forced : No
Text #2
ID : 5
Format : UTF-8
Codec ID : S_TEXT/UTF8
Codec ID/Info : UTF-8 Plain Text
Language : English
Default : No
Forced : No

Скриншоты

Other forum [Profile] [PM]
Display posts from previous:    
Reply to topic

The time now is: Today 01:58

All times are GMT + 3 Hours



You cannot post new topics in this forum
You cannot reply to topics in this forum
You cannot edit your posts in this forum
You cannot delete your posts in this forum
You cannot vote in polls in this forum
You cannot attach files in this forum
You cannot download files in this forum