Today is a free download without charge Download

Молот богов / Hammer of the Gods (Фэррен Блэкберн / Farren Blackburn) [2013, Великобритания, боевик, WEB-DL 720p] 2 x VO + Original (Eng) + Sub (rus, eng)

Reply to topic
 
Author
Message

Omen ®

Longevity: 8 years 5 months

Posts: 181087

Торрент-статистика

Post 08-Jun-2013 13:58

[Quote]

Молот богов
Hammer of the Gods
Страна: Великобритания
Год выпуска: 2013
Жанр: боевик
Продолжительность: 01:38:56
Перевод:
Одноголосый закадровый [den904] [по субтитрам Janetta]
Одноголосый закадровый [Cmert] [по субтитрам А. Кедров]
Cубтитры: русские [А. Кедров], английские
Оригинальная дорожка: Английская-Режиссёр: Фэррен Блэкберн : Farren Blackburn
В главных ролях: Чарли Бьюли, Клайв Стэнден, Джеймс Космо, Эллиот Кауэн, Глайнис Барбер, Айван Кэй, Майкл Джибсон, Гай Флэнеган, Тео Барклем-Биггз, Александра Доулинг-Описание: Страстный молодой человек превращается в жестокого воина, во время своих путешествий в поисках давно потерянного брата.- -Качество: WEB-DL 720p
Формат: MKV
Видео кодек: AVC
Аудио кодек: АС3
Видео: 1280x530, 23.976 fps, ~3 979 kbps avg, 0.245 bit/pixel
Аудио #1: 48 kHz, AC3 Dolby Digital, 3/2 (L,C,R,l,r) + LFE ch, ~384 kbps [den904]
Аудио #2: 48.0 kHz, AC3 Dolby Digital, 2 ch, ~192 kbps [Cmert]
Аудио #3: 48 kHz, AC3 Dolby Digital, 3/2 (L,C,R,l,r) + LFE ch, ~384 kbps [ENG]
Формат субтитров: softsub (SRT)
навигация по главам: 13 глав

скриншоты


MediaInfo

Общее
Уникальный идентификатор : 220057702304375368220307028304738980279 (0xA58D9263D9D906DCB37E6F3186E511B7)
Полное имя : D:\Молот богов\Hammer of the Gods.2013.WEB-DL 720p.mkv
Формат : Matroska
Версия формата : Version 4 / Version 2
Размер файла : 3,48 Гбайт
Продолжительность : 1 ч. 38 м.
Общий поток : 5040 Кбит/сек
Дата кодирования : UTC 2013-06-08 09:14:10
Программа кодирования : mkvmerge v6.1.0 ('Old Devil') built on Mar 2 2013 14:32:37
Библиотека кодирования : libebml v1.3.0 + libmatroska v1.4.0
Видео
Идентификатор : 1
Формат : AVC
Формат/Информация : Advanced Video Codec
Профиль формата : [email protected]
Параметр CABAC формата : Нет
Параметр ReFrames формата : 2 кадра
Идентификатор кодека : V_MPEG4/ISO/AVC
Продолжительность : 1 ч. 38 м.
Битрейт : 3979 Кбит/сек
Ширина : 1280 пикселей
Высота : 530 пикселей
Соотношение сторон : 2,40:1
Частота кадров : 23,976 кадра/сек
Цветовое пространство : YUV
Субдискретизация насыщенности : 4:2:0
Битовая глубина : 8 бит
Тип развёртки : Прогрессивная
Бит/(Пиксели*Кадры) : 0.245
Размер потока : 2,75 Гбайт (79%)
Язык : English
Default : Да
Forced : Нет
Основные цвета : BT.709-5, BT.1361, IEC 61966-2-4, SMPTE RP177
Характеристики трансфера : BT.709-5, BT.1361
Коэффициенты матрицы : BT.709-5, BT.1361, IEC 61966-2-4 709, SMPTE RP177
Аудио #1
Идентификатор : 2
Формат : AC-3
Формат/Информация : Audio Coding 3
Расширение режима : CM (complete main)
Идентификатор кодека : A_AC3
Продолжительность : 1 ч. 38 м.
Вид битрейта : Постоянный
Битрейт : 384 Кбит/сек
Каналы : 6 каналов
Расположение каналов : Front: L C R, Side: L R, LFE
Частота : 48,0 КГц
Битовая глубина : 16 бит
Метод сжатия : С потерями
Размер потока : 272 Мбайт (8%)
Заголовок : VO [den904]
Язык : Russian
Default : Да
Forced : Нет
Аудио #2
Идентификатор : 3
Формат : AC-3
Формат/Информация : Audio Coding 3
Расширение режима : CM (complete main)
Идентификатор кодека : A_AC3
Продолжительность : 1 ч. 38 м.
Вид битрейта : Постоянный
Битрейт : 192 Кбит/сек
Каналы : 2 канала
Расположение каналов : Front: L R
Частота : 48,0 КГц
Битовая глубина : 16 бит
Метод сжатия : С потерями
Размер потока : 136 Мбайт (4%)
Заголовок : VO [Cmert]
Язык : Russian
Default : Нет
Forced : Нет
Аудио #3
Идентификатор : 4
Формат : AC-3
Формат/Информация : Audio Coding 3
Расширение режима : CM (complete main)
Идентификатор кодека : A_AC3
Продолжительность : 1 ч. 38 м.
Вид битрейта : Постоянный
Битрейт : 384 Кбит/сек
Каналы : 6 каналов
Расположение каналов : Front: L C R, Side: L R, LFE
Частота : 48,0 КГц
Битовая глубина : 16 бит
Метод сжатия : С потерями
Размер потока : 272 Мбайт (8%)
Заголовок : ENG
Язык : English
Default : Нет
Forced : Нет
Текст #1
Идентификатор : 5
Формат : UTF-8
Идентификатор кодека : S_TEXT/UTF8
Идентификатор кодека/Информация : UTF-8 Plain Text
Заголовок : Rus Sub [А.Кедров]
Язык : Russian
Default : Да
Forced : Нет
Текст #2
Идентификатор : 6
Формат : UTF-8
Идентификатор кодека : S_TEXT/UTF8
Идентификатор кодека/Информация : UTF-8 Plain Text
Заголовок : Eng Sub
Язык : English
Default : Нет
Forced : Нет
Меню
00:00:00.000 : en:1
00:02:08.000 : en:2
00:08:55.000 : en:3
00:17:27.000 : en:4
00:26:18.000 : en:5
00:35:31.000 : en:6
00:45:54.000 : en:7
00:53:37.000 : en:8
01:01:13.000 : en:9
01:11:55.000 : en:10
01:18:20.000 : en:11
01:26:51.000 : en:12
01:35:17.000 : en:13
Other forum [Profile] [PM]
Similar theme
Forum Topic Author Torrent Replies Last Post
./templates/default/images/folder_dl.gif Фантастика, фэнтези, ужасы, мистика Владимир Молотов | Отпуск в СССР или Назад в будущее (2019) [FB2] }{@R0N
1 | 0

0 | 1846

5

2019-01-17 22:40
}{@R0N Latest
Display posts from previous:    
Reply to topic

The time now is: Today 19:25

All times are GMT + 3 Hours



You cannot post new topics in this forum
You cannot reply to topics in this forum
You cannot edit your posts in this forum
You cannot delete your posts in this forum
You cannot vote in polls in this forum
You cannot attach files in this forum
You cannot download files in this forum