Today is a free download without charge Download

Приключения Гекльберри Финна / Die Abenteuer des Huck Finn (Гермина Хунтгебурт) (Приключения, Семейный, 2012) DVDRip

Reply to topic
 
Author
Message

Omen ®

Longevity: 8 years 6 months

Posts: 181087

Торрент-статистика

Post 08-Jun-2013 12:25

[Quote]

Приключения Гекльберри Финна
Die Abenteuer des Huck Finn
- Русское название: Приключения Гекльберри Финна
Оригинальное название: Die Abenteuer des Huck Finn
Год выпуска: 2012
Производство: Германия
Жанр: Приключения, Семейный
Описание фильма:
Кто не знает Тома Сойера и Гекльберри Финна? Найдя сокровища, эти два проказника наконец разбогатели. Однако «свободный волк» Гек не может усидеть на месте. К тому же его добрый друг, чернокожий Джим, в опасности — хозяйка собирается продать его на аукционе. В компании Джима Гек отправляется мимо диких берегов Миссисипи — сначала в Каир, а потом и в Огайо, в свободную страну, не знающую рабства… А значит, впереди беглецов ждёт множество самых невероятных приключений! Будет ли счастливый конец у этой полной опасностей истории? И увидятся ли снова закадычные друзья Том Сойер и Гекльберри Финн?
Режиссер: Гермина Хунтгебурт
Актеры: Леон Сидел, Луис Хофманн, Джеки Идо, Аугуст Диль, Хайке Макач, Петер Ломайер, Михаэль Гвиздек, Курт Крюмер, Хиннерк Шонеманн, Хенри Хюбхен
Продолжительность: 01:40:24
Перевод: Дублированный

Дата мировой премьеры: 3 октября 2012
Дата российской премьеры: 9 мая 2013
Дата выхода DVD релиза: Июнь 2013
Видеокодек: Xvid
Битрейт видео: ~1568 Kb/s
Размер кадра: 704x288
Качество видео: DVDRip
Аудиокодек: AC3 5.1
Битрейт аудио: 448 kb/s

MediaInfo:

Общее
Полное имя : D:\Фильмы\Не смотрел\Prikljuchenija.Geklberri.Finna.2012.D.DVDRip.1400MB.avi
Формат : AVI
Формат/Информация : Audio Video Interleave
Размер файла : 1,46 Гбайт
Продолжительность : 1 ч. 42 м.
Общий поток : 2025 Кбит/сек
Название фильма : Prikljuchenija.Geklberri.Finna.2012.D.DVDRip.IRONCLUB
Режиссёр : IRONCLUB
Жанр : Adventure / Family
Программа кодирования : VirtualDubMod 1.5.10.3 | www.virtualdub-fr.org || (build 2550/release)
Формат оригинала/Имя : Movie
Правообладатель : http://ironclub.tv/
Видео
Идентификатор : 0
Формат : MPEG-4 Visual
Профиль формата : Advanced [email protected]
Параметр BVOP формата : 1
Параметр QPel формата : Нет
Параметр GMC формата : Без точки перехода
Параметр матрицы формата : Выборочная
Идентификатор кодека : XVID
Идентификатор кодека/Подсказка : XviD
Продолжительность : 1 ч. 42 м.
Битрейт : 1488 Кбит/сек
Ширина : 704 пикселя
Высота : 288 пикселей
Соотношение сторон : 2,40:1
Частота кадров : 25,000 кадров/сек
Цветовое пространство : YUV
Субдискретизация насыщенности : 4:2:0
Битовая глубина : 8 бит
Тип развёртки : Прогрессивная
Метод сжатия : С потерями
Бит/(Пиксели*Кадры) : 0.294
Размер потока : 1,07 Гбайт (73%)
Библиотека кодирования : XviD 1.2.1 (UTC 2008-12-04)
Аудио
Идентификатор : 1
Формат : AC-3
Формат/Информация : Audio Coding 3
Расширение режима : CM (complete main)
Параметр Endianness формата : Big
Идентификатор кодека : 2000
Продолжительность : 1 ч. 42 м.
Вид битрейта : Постоянный
Битрейт : 448 Кбит/сек
Каналы : 6 каналов
Расположение каналов : Front: L C R, Side: L R, LFE
Частота : 48,0 КГц
Битовая глубина : 16 бит
Метод сжатия : С потерями
Размер потока : 330 Мбайт (22%)
Выравнивание : Разделение по промежуткам
Скриншоты:
     
Other forum [Profile] [PM]
Similar theme
Forum Topic Author Torrent Replies Last Post
./templates/default/images/folder_dl.gif Фильмы 2001-2010 Невероятная жизнь Уолтера Митти / The Secret Life of Walter Mitty (Бен Стиллер / Ben Stiller, 2013, Приключения, мелодрама, драма, комедия, фэнтези) WEB-DL [H.264/1080p-LQ] Omen
1 | 0

0 | 1116

36

2014-03-26 22:37
Omen Latest
./templates/default/images/folder_dl.gif Обучающее видео Учебный центр 1C | Использование прикладного решения 1С Розница 8.2 Редакция 2 (2015) PCRec Varius
1 | 0

0 | 2730

44

2015-07-16 05:16
Varius Latest
./templates/default/images/folder_dl.gif Отечественные cериалы Шерлок Холмс / Сезон: 1 / Серии: 1-8 из 8 (Андрей Кавун) [2013, триллер, детектив, приключения, WEB-DL (720p)] Omen
1 | 0

0 | 598

0

2016-02-28 15:00
Omen Latest
./templates/default/images/folder_dl.gif Зарубежное кино Изгой-один: Звёздные войны. Истории / Rogue One: A Star Wars Story (Гарет Эдвардс) [2016 г., фантастика, боевик, приключения, BDRip 1080p] DUB | Чистый звук Theseus
1 | 0

0 | 8019

8

2017-03-22 11:05
Theseus Latest
./templates/default/images/folder_dl.gif Зарубежные сериалы Игра престолов / Game of Thrones / Сезон: 8 / Серии: 1-6 из 6 (Алан Тейлор / Alan Taylor) [2019, фэнтези, боевик, драма, мелодрама, приключения, WEB-DL 1080p] MVO (Amedia / Новамедиа) + Original + Sub (Rus, Eng) ¶ }{@R0N
1 | 0

0 | 2571

0

2019-05-20 12:02
}{@R0N Latest
./templates/default/images/folder_dl.gif Новинки (HD|DVD|BD|WEB|TV|SAT|PDTV|-Rip) Смотри как я (Егор Сальников) [2020 г., комедия, приключения, WEB-DLRip] iTunes kilmister777
1 | 0

0 | 1330

0

2020-09-27 14:17
kilmister777 Latest
./templates/default/images/folder_dl.gif Иностранные мультфильмы Душа / Soul (Пит Доктер, Кемп Пауэрс / Pete Docter, Kemp Powers) [2020, США, Мультфильм, фэнтези, комедия, приключения, семейный, музыка, BDRemux 1080p] MVO (HDRezka Studio) + Original + Sub (rus, ukr, eng) Fanatik
1 | 0

0 | 92

0

2021-03-23 22:55
Fanatik Latest
Display posts from previous:    
Reply to topic

The time now is: Today 04:19

All times are GMT + 3 Hours



You cannot post new topics in this forum
You cannot reply to topics in this forum
You cannot edit your posts in this forum
You cannot delete your posts in this forum
You cannot vote in polls in this forum
You cannot attach files in this forum
You cannot download files in this forum