Today is a free download without charge Download

Приключения Гекльберри Финна / Die Abenteuer des Huck Finn (Гермина Хунтгебурт) [2012., Приключения, Семейный] WEB-DLRip

Reply to topic
 
Author
Message

sashau ®

Gender:

Longevity: 9 years 5 months

Posts: 3497

Торрент-статистика

Post 08-Jun-2013 12:18

[Quote]

Приключения Гекльберри Финна
Die Abenteuer des Huck Finn
- Русское название: Приключения Гекльберри Финна
Оригинальное название: Die Abenteuer des Huck Finn
Год выпуска: 2012
Производство: Германия
Жанр: Приключения, Семейный
Перевод: Многоголосый закадровый, профессиональный
Субтитры: Отсутствуют
Дата мировой премьеры: 3 октября 2012,
Дата российской премьеры: 9 мая 2013
Дата выхода DVD релиза: Июнь 2013
Режиссер: Гермина Хунтгебурт
Продюсер: Борис Шёнфельдер, Эрик Бенц, Корнелиус Конрад, ...
Актеры: Леон Сидел, Луис Хофманн, Джеки Идо, Аугуст Диль, Хайке Макач, Петер Ломайер, Михаэль Гвиздек, Курт Крюмер, Хиннерк Шонеманн, Хенри Хюбхен
Описание фильма:
Кто не знает Тома Сойера и Гекльберри Финна? Найдя сокровища, эти два проказника наконец разбогатели. Однако «свободный волк» Гек не может усидеть на месте. К тому же его добрый друг, чернокожий Джим, в опасности — хозяйка собирается продать его на аукционе. В компании Джима Гек отправляется мимо диких берегов Миссисипи — сначала в Каир, а потом и в Огайо, в свободную страну, не знающую рабства… А значит, впереди беглецов ждёт множество самых невероятных приключений! Будет ли счастливый конец у этой полной опасностей истории? И увидятся ли снова закадычные друзья Том Сойер и Гекльберри Финн?

Продолжительность: 01:40:24
Качество видео: WEB-DLRip
Видеокодек: Xvid
Битрейт видео: ~1750 Kbps
Размер кадра: 720x304
Аудиокодек: AC3 2.0
Битрейт аудио: 192 kbps

MediaInfo:

Код:
Общее
Полное имя                               : E:\torrents\film\Priklyucheniya.Gekl'berri.Fina.2012.D.WEBRip.avi
Формат                                   : AVI
Формат/Информация                        : Audio Video Interleave
Размер файла                             : 10,3 Мбайт
Продолжительность                        : 46 с.
Общий поток                              : 1861 Кбит/сек
Программа кодирования                    : VirtualDubMod 1.5.10.2 (build 2540/release)
Библиотека кодирования                   : VirtualDubMod build 2540/release
Видео
Идентификатор                            : 0
Формат                                   : MPEG-4 Visual
Профиль формата                          : Advanced [email protected]
Параметр BVOP формата                    : 2
Параметр QPel формата                    : Нет
Параметр GMC формата                     : Без точки перехода
Параметр матрицы формата                 : Default (MPEG)
Идентификатор кодека                     : XVID
Идентификатор кодека/Подсказка           : XviD
Продолжительность                        : 46 с.
Битрейт                                  : 1658 Кбит/сек
Ширина                                   : 720 пикселей
Высота                                   : 304 пикселя
Соотношение сторон                       : 2,35:1
Частота кадров                           : 25,000 кадров/сек
Цветовое пространство                    : YUV
Субдискретизация насыщенности            : 4:2:0
Битовая глубина                          : 8 бит
Тип развёртки                            : Прогрессивная
Метод сжатия                             : С потерями
Бит/(Пиксели*Кадры)                      : 0.303
Размер потока                            : 9,14 Мбайт (89%)
Библиотека кодирования                   : XviD 1.2.1 (UTC 2008-12-04)
Аудио
Идентификатор                            : 1
Формат                                   : AC-3
Формат/Информация                        : Audio Coding 3
Расширение режима                        : CM (complete main)
Параметр Endianness формата              : Big
Идентификатор кодека                     : 2000
Продолжительность                        : 46 с.
Вид битрейта                             : Постоянный
Битрейт                                  : 192 Кбит/сек
Каналы                                   : 2 канала
Расположение каналов                     : Front: L R
Частота                                  : 48,0 КГц
Битовая глубина                          : 16 бит
Метод сжатия                             : С потерями
Задержка видео                           : 24 мс.
Размер потока                            : 1,06 Мбайт (10%)
Выравнивание                             : Разделение по промежуткам
Продолжительность промежутка             : 40  мс. (1,01 видеокадр)
Время предзагрузки промежутка            : 500  мс.
Скриншоты:
       
Other forum [Profile] [PM]
Similar theme
Forum Topic Author Torrent Replies Last Post
./templates/default/images/folder_dl.gif Фильмы 2001-2010 Невероятная жизнь Уолтера Митти / The Secret Life of Walter Mitty (Бен Стиллер / Ben Stiller, 2013, Приключения, мелодрама, драма, комедия, фэнтези) WEB-DL [H.264/1080p-LQ] Omen
1 | 0

0 | 1132

36

2014-03-26 22:37
Omen Latest
./templates/default/images/folder_dl.gif Обучающее видео Учебный центр 1C | Использование прикладного решения 1С Розница 8.2 Редакция 2 (2015) PCRec Varius
1 | 0

0 | 2742

44

2015-07-16 05:16
Varius Latest
./templates/default/images/folder_dl.gif Отечественные cериалы Шерлок Холмс / Сезон: 1 / Серии: 1-8 из 8 (Андрей Кавун) [2013, триллер, детектив, приключения, WEB-DL (720p)] Omen
1 | 0

0 | 605

0

2016-02-28 15:00
Omen Latest
./templates/default/images/folder_dl.gif Зарубежное кино Изгой-один: Звёздные войны. Истории / Rogue One: A Star Wars Story (Гарет Эдвардс) [2016 г., фантастика, боевик, приключения, BDRip 1080p] DUB | Чистый звук Theseus
1 | 0

0 | 8038

8

2017-03-22 11:05
Theseus Latest
./templates/default/images/folder_dl.gif Зарубежное кино (HD Video) Джим Пуговка и машинист Лукас / Jim Knopf und Lukas der Lokomotivführer (Деннис Ганзель) [2018 г., фэнтези, приключения, семейный, WEB-DL 720p] DUB | Чистый звук Theseus
1 | 0

0 | 1603

5

2018-09-27 19:29
Theseus Latest
./templates/default/images/folder_dl.gif Зарубежные сериалы Игра престолов / Game of Thrones / Сезон: 8 / Серии: 1-6 из 6 (Алан Тейлор / Alan Taylor) [2019, фэнтези, боевик, драма, мелодрама, приключения, WEB-DL 1080p] MVO (Amedia / Новамедиа) + Original + Sub (Rus, Eng) ¶ }{@R0N
1 | 0

0 | 2586

0

2019-05-20 12:02
}{@R0N Latest
./templates/default/images/folder_dl.gif Фильмы 2011-2020 Удивительное путешествие доктора Дулиттла / Dolittle (Стивен Гейган) [2020 г., приключения, комедия, семейный, фэнтези, BDRip]MVO | HDRezka Studio kilmister777
1 | 0

0 | 843

0

2020-03-31 11:14
kilmister777 Latest
./templates/default/images/folder_dl.gif Новинки (HD|DVD|BD|WEB|TV|SAT|PDTV|-Rip) Смотри как я (Егор Сальников) [2020 г., комедия, приключения, WEB-DLRip] iTunes kilmister777
1 | 0

0 | 1340

0

2020-09-27 14:17
kilmister777 Latest
Display posts from previous:    
Reply to topic

The time now is: Today 02:08

All times are GMT + 3 Hours



You cannot post new topics in this forum
You cannot reply to topics in this forum
You cannot edit your posts in this forum
You cannot delete your posts in this forum
You cannot vote in polls in this forum
You cannot attach files in this forum
You cannot download files in this forum