Today is a free download without charge Download

Печать царя Соломона (Владлен Барбэ) (Приключения, 2013) CamRip

Reply to topic
 
Author
Message

Omen ®

Longevity: 7 years 11 months

Posts: 181087

Торрент-статистика

Post 08-Jun-2013 11:27

[Quote]

Печать царя Соломона- Русское название: Печать царя Соломона
Год выпуска: 2013
Производство: Россия
Жанр: Приключения
Язык: Русский
Дата мировой премьеры: 2 мая 2013
Дата российской премьеры: 1 мая 2013, «West»
Дата выхода DVD релиза: Нет информации
Режиссер: Владлен Барбэ
Продюсер: Всеволод Зорин, Рубен Атоян, Александр Атанесян
Актеры: Дмитрий Дюжев, Эдуард Радзюкевич, Владимир Долинский, Александр Головин
Описание фильма:
Много веков назад, во времена своего правления, царь Соломон прогневался на могущественного джинна Юсуфа и с помощью колдовства заковал его в глиняный сосуд, скрепив заклятье своим магическим перстнем.
Прошли годы, сменились эпохи, и джинн оказывается на свободе в современной Москве. По невероятному стечению обстоятельств из плена его спасли юный Гекльберри Финн со своим другом, беглым рабом Джимом, силой магии также переместившиеся из Америки XIX века на улицы современного мегаполиса.
Но на этом приключения героев не заканчиваются. Сила перстня столь велика, что сквозь пространство и время Юсуфа преследует древний демон Кишкаш, продолжающий исполнять волю Соломона. Однако, истинная его цель заключается в стремлении обрести могущественный артефакт царя, чтобы погрузить мир в вечную тьму и хаос.
Время решающей битвы стремительно приближается…

Продолжительность: 01:13:42
Качество видео: CamRip
Видеокодек: DivX
Битрейт видео: ~2266 Kbps 25.00 fps
Размер кадра: 720 x 304
Аудиокодек: AC3 2.0
Битрейт аудио: 384 Kbps 48000 Hz

MediaInfo:

Формат : AVI
Формат/Информация : Audio Video Interleave
Размер файла : 1,37 Гбайт
Продолжительность : 1 ч. 13 м.
Общий поток : 2660 Кбит/сек
Программа кодирования : VirtualDubMod 1.5.10.2 (build 2540/release)
Библиотека кодирования : VirtualDubMod build 2540/release
Видео
Идентификатор : 0
Формат : MPEG-4 Visual
Профиль формата : Advanced [email protected]
Параметр BVOP формата : 2
Параметр QPel формата : Нет
Параметр GMC формата : Без точки перехода
Параметр матрицы формата : Default (MPEG)
Идентификатор кодека : DX50
Идентификатор кодека/Подсказка : DivX 5
Продолжительность : 1 ч. 13 м.
Битрейт : 2266 Кбит/сек
Ширина : 720 пикселей
Высота : 304 пикселя
Соотношение сторон : 2,35:1
Частота кадров : 25,000 кадров/сек
Цветовое пространство : YUV
Субдискретизация насыщенности : 4:2:0
Битовая глубина : 8 бит
Тип развёртки : Прогрессивная
Метод сжатия : С потерями
Бит/(Пиксели*Кадры) : 0.414
Размер потока : 1,17 Гбайт (85%)
Библиотека кодирования : XviD 65
Аудио
Идентификатор : 1
Формат : AC-3
Формат/Информация : Audio Coding 3
Расширение режима : CM (complete main)
Идентификатор кодека : 2000
Продолжительность : 1 ч. 13 м.
Вид битрейта : Постоянный
Битрейт : 384 Кбит/сек
Каналы : 2 канала
Расположение каналов : Front: L R
Частота : 48,0 КГц
Битовая глубина : 16 бит
Метод сжатия : С потерями
Размер потока : 202 Мбайт (14%)
Выравнивание : Разделение по промежуткам
Продолжительность промежутка : 40 мс. (1,00 видеокадр)
Время предзагрузки промежутка : 500 мс.
Скриншоты:
         
         
Other forum [Profile] [PM]
Display posts from previous:    
Reply to topic

The time now is: Today 19:33

All times are GMT + 3 Hours



You cannot post new topics in this forum
You cannot reply to topics in this forum
You cannot edit your posts in this forum
You cannot delete your posts in this forum
You cannot vote in polls in this forum
You cannot attach files in this forum
You cannot download files in this forum