Today is a free download without charge Download

Женюсь на первой встречной / Wedding Daze (2006) BDRip

Reply to topic
 
Author
Message

Omen ®

Longevity: 7 years

Posts: 181090

Торрент-статистика

Post 14-Aug-2011 23:28

[Quote]

Женюсь на первой встречной
Wedding Daze
-
Русское название: Женюсь на первой встречной
Оригинальное название: Wedding Daze
Год выпуска: 2006
Жанр: Комедия
-Описание фильма:
Молодой человек по фамилии Андерсон никак не может устроить свою личную жизнь. Со своей прежней подружкой он расстался так неожиданно, что потом целый год ходил мрачнее тучи. Его друг, надежда и опора в любой ситуации, не мог больше выносить подобного состояния товарища и предложил ему жениться на первой встречной.
Недолго думая, Андерсон делает предложение руки и сердца незнакомой официантке. Та, к всеобщему удивлению, соглашается. Позже, правда, выясняется, что позвать замуж и согласиться — это еще полбеды, а вот выдержать знакомство с родителями — что с той, что с другой стороны — это испытание куда как сложнее.
-Режиссер: Майкл Йен Блэк / Michael Ian Black
Актеры: Дэннис Альбанезе, Джейсон Биггз, Одра Блейзер, Джулия Монтгомери Браун и др.-Продолжительность: 1:31:39
Перевод: Двуголосый закадровый (профессиональный)
Язык: русский- -Видеокодек: MPEG-4 AVC/H.264
Битрейт видео: ~5308 kbps
Размер кадра: 1280 x 688
Качество видео: BDRip
Аудиокодек: AC3 5.1
Битрейт аудио: 448 kbps
Сэмпл: СсылкаСкриншоты:
       
-

Отчет Mediainfo

Общее
Уникальный идентификатор : 258240632721825273832193732752325552203 (0xC2475634B358DF5808E6F5EF1A59284B)
Полное имя : Z:\media\NEW\фильмы\Wedding.Daze.2006.720p.BluRay.x264.mkv
Формат : Matroska
Версия формата : Version 2
Размер файла : 3,69 Гбайт
Продолжительность : 1 ч. 31 м.
Общий поток : 5753 Кбит/сек
Дата кодирования : UTC 2011-08-12 10:56:24
Программа кодирования : mkvmerge v4.9.1 ('Ich will') сборка от Jul 11 2011 21:17:31
Библиотека кодирования : libebml v1.2.1 + libmatroska v1.1.1
Видео
Идентификатор : 1
Формат : AVC
Формат/Информация : Advanced Video Codec
Профиль формата : [email protected]
Параметр CABAC формата : Да
Параметр ReFrames формата : 5 кадров
Режим смешивания : Header stripping
Идентификатор кодека : V_MPEG4/ISO/AVC
Продолжительность : 1 ч. 31 м.
Битрейт : 5308 Кбит/сек
Ширина : 1280 пикс.
Высота : 688 пикс.
Соотношение сторон : 1,860
Частота кадров : 23,976 кадр/сек
Цветовое пространство : YUV
Подвыборка цветности : 4:2:0
Битовая глубина : 8 бит
Тип развёртки : Прогрессивная
Бит/(Пиксели*Кадры) : 0.251
Размер потока : 3,33 Гбайт (90%)
Библиотека кодирования : x264 core 116 r2037 f8ebd4a
Настройки программы : cabac=1 / ref=5 / deblock=1:0:0 / analyse=0x3:0x113 / me=umh / subme=8 / psy=1 / psy_rd=1.00:0.00 / mixed_ref=1 / me_range=16 / chroma_me=1 / trellis=1 / 8x8dct=1 / cqm=0 / deadzone=21,11 / fast_pskip=1 / chroma_qp_offset=-2 / threads=12 / sliced_threads=0 / nr=0 / decimate=1 / interlaced=0 / bluray_compat=0 / constrained_intra=0 / bframes=3 / b_pyramid=2 / b_adapt=2 / b_bias=0 / direct=3 / weightb=1 / open_gop=0 / weightp=2 / keyint=240 / keyint_min=24 / scenecut=40 / intra_refresh=0 / rc_lookahead=50 / rc=2pass / mbtree=1 / bitrate=5308 / ratetol=1.0 / qcomp=0.60 / qpmin=0 / qpmax=69 / qpstep=4 / cplxblur=20.0 / qblur=0.5 / ip_ratio=1.40 / aq=1:1.00
Язык : English
Аудио
Идентификатор : 2
Формат : AC-3
Формат/Информация : Audio Coding 3
Расширение режима : CM (complete main)
Режим смешивания : Header stripping
Идентификатор кодека : A_AC3
Продолжительность : 1 ч. 31 м.
Вид битрейта : Постоянный
Битрейт : 448 Кбит/сек
Каналы : 6 каналов
Расположение каналов : Front: L C R, Side: L R, LFE
Частота : 48,0 КГц
Битовая глубина : 16 бит
Метод сжатия : С потерями
Задержка видео : 500 мс.
Размер потока : 294 Мбайт (8%)
Язык : Russian
Меню
00:00:00.000 : en:00:00:00.000
00:07:22.692 : en:00:07:22.692
00:09:18.057 : en:00:09:18.057
00:12:39.717 : en:00:12:39.717
00:18:58.429 : en:00:18:58.429
00:21:05.514 : en:00:21:05.514
00:25:44.168 : en:00:25:44.168
00:29:22.135 : en:00:29:22.135
00:32:03.338 : en:00:32:03.338
00:37:04.139 : en:00:37:04.139
00:43:01.454 : en:00:43:01.454
00:47:28.888 : en:00:47:28.888
00:50:13.260 : en:00:50:13.260
00:54:03.323 : en:00:54:03.323
00:57:38.789 : en:00:57:38.789
01:00:36.424 : en:01:00:36.424
01:02:42.801 : en:01:02:42.801
01:04:46.424 : en:01:04:46.424
01:08:46.831 : en:01:08:46.831
01:11:12.018 : en:01:11:12.018
01:16:19.033 : en:01:16:19.033
01:18:18.777 : en:01:18:18.777
01:23:16.867 : en:01:23:16.867
01:27:45.844 : en:01:27:45.844


Last edited by Omen on 2011-08-14 23:31; edited 1 time in total
Other forum [Profile] [PM]
Display posts from previous:    
Reply to topic

The time now is: Today 20:23

All times are GMT + 3 Hours



You cannot post new topics in this forum
You cannot reply to topics in this forum
You cannot edit your posts in this forum
You cannot delete your posts in this forum
You cannot vote in polls in this forum
You cannot attach files in this forum
You cannot download files in this forum