Today is a free download without charge Download

Хатико: Самый верный друг / Hachiko: A Dog's Story (Лассе Халльстрём) [2009 г., драма, семейный, BDRip]

Reply to topic
 
Author
Message

Delia ®

Gender:

Longevity: 9 years 7 months

Posts: 1821

Торрент-статистика

Post 14-Aug-2011 23:05

[Quote]

Хатико: Самый верный друг Hachiko: A Dog's Story
Год выпуска: 2009
Страна: США, Великобритания
Жанр: драма, семейный
Продолжительность: 01:33:14
Перевод: Профессиональный (полное дублирование)
Режиссер: Лассе Халльстрём
Продюссер: Вики Шигекуни Вонг, Ричард Гир, Уильям Дж. Джонсон
Сценарий: Стефен П. Линдси, Канэто Синдо
Бюджет: $2 035 742
Премьера в мире: 13 июня 2009

В ролях: Ричард Гир, Джоан Аллен, Кэри-Хироюки Тагава, Сара Ремер, Джейсон Александр, Эрик Авари, Давиния МакФэдден, Робби Саблетт, Кевин ДеКосте, Роб Деньян
Описание: Фильм поставлен по известной правдивой истории, которая произошла в Японии в 20-х годах. Пес каждый день провожал и встречал своего хозяина на вокзале. Потом хозяин неожиданно умер, но пес в течение 9 лет КАЖДЫЙ день в 5 часов вечера приходил на вокзал встречать хозяина и ждал его до последнего поезда. Потом японцы поставили ему памятник на том месте, где он постоянно ждал хозяина.
Качество: BDRip
Формат: MKV
Видео кодек: H.264
Аудио кодек: DTS
Видео: English, 6499 Кбит/сек, 1920*1040 (16:9), в 23,976 кадр/сек, AVC ([email protected])
Аудио: Russian, 1510 Кбит/сек, 48,0 КГц, 24 бит, 6 канала(ов), DTS |Дубляж
English, 2908 Кбит/сек, 48,0 КГц, 24 бит, 6 канала(ов), DTS |Оригинал ( отдельно)
Субтитры: Russian,English - VobSub

"MI:

Общее
Уникальный идентификатор : 194105462038232622970392326244465910235 (0x92075A27DE81B88784E94C7D071C21DB)
Полное имя : F:\торрент\Hachiko. A Dog's Story (2009)BDRip1080p\Hachiko. A Dog's Story (2009)BDRip1080p.mkv
Формат : Matroska
Размер файла : 5,22 Гбайт
Продолжительность : 1 ч. 33 м.
Общий поток : 8016 Кбит/сек
Дата кодирования : UTC 2011-08-14 18:29:15
Программа кодирования : mkvmerge v4.9.1 ('Ich will') built on Jul 11 2011 23:53:15
Библиотека кодирования : libebml v1.2.1 + libmatroska v1.1.1
Видео
Идентификатор : 1
Формат : AVC
Формат/Информация : Advanced Video Codec
Профиль формата : [email protected]
Параметр CABAC формата : Да
Параметр ReFrames формата : 4 кадры
Идентификатор кодека : V_MPEG4/ISO/AVC
Продолжительность : 1 ч. 33 м.
Битрейт : 6499 Кбит/сек
Ширина : 1920 пикс.
Высота : 1040 пикс.
Соотношение сторон : 16:9
Частота кадров : 23,976 кадр/сек
Цветовое пространство : YUV
Подвыборка цветности : 4:2:0
Битовая глубина : 8 бит
Тип развёртки : Прогрессивная
Бит/(Пиксели*Кадры) : 0.136
Размер потока : 4,13 Гбайт (79%)
Библиотека кодирования : x264 core 116 r2044 392e762
Настройки программы : cabac=1 / ref=4 / deblock=1:-3:-3 / analyse=0x3:0x133 / me=umh / subme=8 / psy=1 / psy_rd=1.00:0.15 / mixed_ref=1 / me_range=36 / chroma_me=1 / trellis=2 / 8x8dct=1 / cqm=0 / deadzone=21,11 / fast_pskip=0 / chroma_qp_offset=-3 / threads=6 / sliced_threads=0 / nr=0 / decimate=1 / interlaced=0 / bluray_compat=0 / constrained_intra=0 / bframes=6 / b_pyramid=2 / b_adapt=2 / b_bias=0 / direct=3 / weightb=1 / open_gop=0 / weightp=2 / keyint=250 / keyint_min=23 / scenecut=40 / intra_refresh=0 / rc_lookahead=60 / rc=2pass / mbtree=1 / bitrate=6499 / ratetol=1.0 / qcomp=0.80 / qpmin=10 / qpmax=51 / qpstep=4 / cplxblur=20.0 / qblur=0.5 / ip_ratio=1.40 / aq=1:1.00
Язык : English
Аудио
Идентификатор : 2
Формат : DTS
Формат/Информация : Digital Theater Systems
Идентификатор кодека : A_DTS
Продолжительность : 1 ч. 33 м.
Вид битрейта : Постоянный
Битрейт : 1510 Кбит/сек
Канал(ы) : 6 канала(ов)
Расположение каналов : Front: L C R, Side: L R, LFE
Частота : 48,0 КГц
Битовая глубина : 24 бит
Метод сжатия : С потерями
Размер потока : 1007 Мбайт (19%)
Язык : Russian
Текст #1
Идентификатор : 3
Формат : VobSub
Режим смешивания : zlib
Идентификатор кодека : S_VOBSUB
Идентификатор кодека/Информация : The same subtitle format used on DVDs
Язык : Russian
Текст #2
Идентификатор : 4
Формат : VobSub
Режим смешивания : zlib
Идентификатор кодека : S_VOBSUB
Идентификатор кодека/Информация : The same subtitle format used on DVDs
Язык : English

Скриншоты

                 

_________________
Человек – это канат, натянутый между животным и сверхчеловеком, – канат над пропастью.
В человеке ценно то, что он мост, а не цель. Фридрих Ницше
Other forum [Profile] [PM]
Display posts from previous:    
Reply to topic

The time now is: Today 10:49

All times are GMT + 3 Hours



You cannot post new topics in this forum
You cannot reply to topics in this forum
You cannot edit your posts in this forum
You cannot delete your posts in this forum
You cannot vote in polls in this forum
You cannot attach files in this forum
You cannot download files in this forum