Today is a free download without charge Download

Посылка / The Package (Джесси Джонсон / Jesse Johnson) [2013, США, боевик, BDRemux 1080p] DVO (den904, DeadSno) + Sub Eng + Original Eng

Reply to topic
 
Author
Message

Omen ®

Longevity: 8 years 5 months

Posts: 181087

Торрент-статистика

Post 07-Jun-2013 21:26

[Quote]

Посылка / The Package
Страна: США
Студия: Anchor Bay Films, Caliber Media Company
Жанр: боевик
Год выпуска: 2013
Продолжительность: 01:35:24
Перевод: Любительский (двухголосый закадровый) den904, DeadSno
Cубтитры: английские
Оригинальная аудиодорожка: английский
Режиссер: Джесси Джонсон / Jesse Johnson
В ролях: Стив Остин, Дольф Лундгрен, Даррен Шахлави, Моник Гэндертон, Джерри Тримбл, Майкл Дэйнджерфилд, Тересе Шафи, Майк Допуд, Эрик Кинлисайд, Кристен Керр
Описание: Курьер по кличке «Немец» должен доставить таинственную посылку местному криминальному авторитету. Задача усложняется по мере того, как о посылке узнают гангстеры. С этого момента начинается смертельная игра, победителем которой суждено стать лишь одному…


Тип релиза: BDRemux 1080p
Контейнер: MKV
Видео: MPEG-4 AVC Video / 24039 kbps / 1080p / 23,976 fps / 16:9 / High Profile 4.1
Аудио 1: Russian / DTS Audio / 5.1 / 48 kHz / 1509 kbps / 24-bit |den904, DeadSno|
Аудио 2: English / DTS-HD Master Audio / 5.1 / 48 kHz / 3500 kbps / 24-bit (DTS Core: 5.1 / 48 kHz / 1509 kbps / 24-bit)

MediaInfo

Код:
General
Unique ID                                : 179493725524960236507336915157429039280 (0x87093BECC929A09CB04C4962948CB0B0)
Complete name                            : E:\The Package.2013.1080p.BDRemux_[/*spam*/].mkv
Format                                   : Matroska
Format version                           : Version 4 / Version 2
File size                                : 19.4 GiB
Duration                                 : 1h 35mn
Overall bit rate                         : 29.1 Mbps
Movie name                               : The Package.2013
Encoded date                             : UTC 2013-06-06 18:16:02
Writing application                      : mkvmerge v6.1.0 ('Old Devil') built on Mar  2 2013 14:32:37
Writing library                          : libebml v1.3.0 + libmatroska v1.4.0
Video
ID                                       : 1
Format                                   : AVC
Format/Info                              : Advanced Video Codec
Format profile                           : [email protected]
Format settings, CABAC                   : Yes
Format settings, ReFrames                : 2 frames
Codec ID                                 : V_MPEG4/ISO/AVC
Duration                                 : 1h 35mn
Bit rate mode                            : Variable
Bit rate                                 : 25.4 Mbps
Width                                    : 1 920 pixels
Height                                   : 1 080 pixels
Display aspect ratio                     : 16:9
Frame rate                               : 23.976 fps
Color space                              : YUV
Chroma subsampling                       : 4:2:0
Bit depth                                : 8 bits
Scan type                                : Progressive
Bits/(Pixel*Frame)                       : 0.511
Stream size                              : 16.9 GiB (87%)
Audio #1
ID                                       : 2
Format                                   : DTS
Format/Info                              : Digital Theater Systems
Codec ID                                 : A_DTS
Duration                                 : 1h 35mn
Bit rate mode                            : Constant
Bit rate                                 : 1 510 Kbps
Channel(s)                               : 6 channels
Channel positions                        : Front: L C R, Side: L R, LFE
Sampling rate                            : 48.0 KHz
Bit depth                                : 24 bits
Compression mode                         : Lossy
Stream size                              : 1.01 GiB (5%)
Title                                    : Любительский (двухголосый закадровый) [den904, DeadSno]
Language                                 : Russian
Audio #2
ID                                       : 3
Format                                   : DTS
Format/Info                              : Digital Theater Systems
Format profile                           : MA / Core
Codec ID                                 : A_DTS
Duration                                 : 1h 35mn
Bit rate mode                            : Variable
Bit rate                                 : 1 561 Kbps / 1 510 Kbps
Channel(s)                               : 6 channels
Channel positions                        : Front: L C R, Side: L R, LFE
Sampling rate                            : 48.0 KHz
Bit depth                                : 24 bits
Compression mode                         : Lossless / Lossy
Language                                 : English
Text
ID                                       : 4
Format                                   : UTF-8
Codec ID                                 : S_TEXT/UTF8
Codec ID/Info                            : UTF-8 Plain Text
Language                                 : English
Menu
00:00:00.000                             : :Chapter 01
00:08:08.321                             : :Chapter 02
00:21:54.813                             : :Chapter 03
00:27:08.210                             : :Chapter 04
00:34:05.794                             : :Chapter 05
00:41:18.685                             : :Chapter 06
00:49:21.834                             : :Chapter 07
00:55:43.590                             : :Chapter 08
01:01:51.374                             : :Chapter 09
01:13:16.726                             : :Chapter 10
01:20:55.559                             : :Chapter 11
01:31:21.184                             : :Chapter 12

Скриншоты

Other forum [Profile] [PM]
Display posts from previous:    
Reply to topic

The time now is: Today 13:00

All times are GMT + 3 Hours



You cannot post new topics in this forum
You cannot reply to topics in this forum
You cannot edit your posts in this forum
You cannot delete your posts in this forum
You cannot vote in polls in this forum
You cannot attach files in this forum
You cannot download files in this forum