Today is a free download without charge Download

Джерри Магуайер / Jerry Maguire (Кэмерон Кроу) [1996.., Драма, Мелодрама, Комедия, Спорт, BDRemux] [1080p]

Reply to topic
 
Author
Message

Meshanik ®

Gender:

Longevity: 8 years 10 months

Posts: 3866

Location: Los Angeles

Торрент-статистика

Post 07-Jun-2013 10:44

[Quote]

Джерри Магуайер / Jerry Maguire
«Everybody loved him... Everybody disappeared.»
- Русское название: Джерри Магуайер
Оригинальное название: Jerry Maguire
Год выпуска: 1996
Производство: Gracie Films / TriStar Pictures [США]
Жанр: Драма, Мелодрама, Комедия, Спорт
Перевод: Дублированный, Многоголосый закадровый, Одноголосый закадровый
Субтитры: Вшитые отключаемые
Язык субтитров: Русский, английский-Режиссер: Кэмерон Кроу
Продюсер: Джеймс Л. Брукс, Кэмерон Кроу, Лоуренс Марк
Актеры: Том Круз, Рене Зеллвегер, Кьюба Гудинг мл., Келли Престон, Джерри О’Коннелл, Джей Мор, Бонни Хант, Реджина Кинг, Бо Бриджес, Джонатан Липники-Описание фильма:
Уволенный за критику начальства, спортивный агент Джерри Магуайер решает создать свою фирму. Лишь два человека верят в него — влюбленная в Магуайера Дороти и Род Тидвелл — талантливый спортсмен, но нахальный и крайне злобный тип. Но обстоятельства не останавливают Джерри — он уверен в себе и твердо знает, чего хочет. И все могло бы быть как нельзя лучше, если бы не его бывшие коллеги. Для них все методы хороши — особенно если нужно доказать правдолюбцу, кто правит бал. И Джерри Магуайер знает — если он проиграет, то встать на ноги ему не удастся никогда.- -Дата мировой премьеры: 6 декабря 1996
Дата выхода Blu-Ray релиза: 11 декабря 2008, «Columbia/Sony»
Рейтинг R - Детям до 17 лет обязательно присутствие родителей
Возраст 16+ - Зрителям, достигшим 16 лет-Качество видео: BDRemux
Видео: MPEG4_AVC/H.264, 1920x1080, ~28956 kbps, 23.976 fps
Аудио 1: AC3 5.1, 640 kbps [Русский - дублированный Blu-ray CEE]
Аудио 2: AC3 2.0, 256 kbps [Русский - многоголосый закадровый]
Аудио 3: AC3 2.0, 384 kbps [Русский - одноголосый закадровый «Ю. Живов»]
Аудио 4: TrueHD 5.1, 1521 kbps [Английский - оригинал]
Аудио 5: AC3 2.0, 192 kbps [Английский - комментарии]
-

Отчёт MediaInfo

Полное имя : D:\Джерри.Магуайер-Jerry.Maguire.(1996).BDRemux.[1080p].mkv
Формат : Matroska
Версия формата : Version 2
Размер файла : 31,0 Гбайт
Продолжительность : 2 ч. 18 м.
Режим общего битрейта : Переменный
Общий поток : 32,0 Мбит/сек
Название фильма : Lelya_K for /*spam*/
Дата кодирования : UTC 2013-06-06 13:55:02
Программа кодирования : mkvmerge v5.7.0 ('The Whirlwind') built on Aug 7 2012 14:11:40
Библиотека кодирования : libebml v1.2.3 + libmatroska v1.3.0
Видео
Идентификатор : 1
Формат : AVC
Формат/Информация : Advanced Video Codec
Профиль формата : [url=mailto:[email protected]][email protected][/url]
Параметр CABAC формата : Да
Параметр ReFrames формата : 4 кадра
Параметр GOP формата : M=3, N=12
Идентификатор кодека : V_MPEG4/ISO/AVC
Продолжительность : 2 ч. 18 м.
Вид битрейта : Переменный
Максимальный битрейт : 32,0 Мбит/сек
Ширина : 1920 пикселей
Высота : 1080 пикселей
Соотношение сторон : 16:9
Режим частоты кадров : Постоянный
Частота кадров : 23,976 кадра/сек
Цветовое пространство : YUV
Субдискретизация насыщенности : 4:2:0
Битовая глубина : 8 бит
Тип развёртки : Прогрессивная
Заголовок : Джерри.Магуайер-Jerry.Maguire.(1996).BDRemux.[1080p]
Язык : English
Default : Да
Forced : Нет
Основные цвета : BT.709
Характеристики трансфера : BT.709
Коэффициенты матрицы : BT.709
Аудио #1
Идентификатор : 2
Формат : AC-3
Формат/Информация : Audio Coding 3
Расширение режима : CM (complete main)
Параметр Endianness формата : Big
Идентификатор кодека : A_AC3
Продолжительность : 2 ч. 18 м.
Вид битрейта : Постоянный
Битрейт : 640 Кбит/сек
Каналы : 6 каналов
Расположение каналов : Front: L C R, Side: L R, LFE
Частота : 48,0 КГц
Битовая глубина : 16 бит
Метод сжатия : С потерями
Размер потока : 634 Мбайт (2%)
Заголовок : AC3 5.1 / 640 kbps / Dub
Язык : Russian
Default : Да
Forced : Нет
Аудио #2
Идентификатор : 3
Формат : AC-3
Формат/Информация : Audio Coding 3
Профиль формата : Dolby Digital
Расширение режима : CM (complete main)
Параметр Endianness формата : Big
Идентификатор кодека : A_AC3
Продолжительность : 2 ч. 18 м.
Вид битрейта : Постоянный
Битрейт : 256 Кбит/сек
Каналы : 2 канала
Расположение каналов : Front: L R
Частота : 48,0 КГц
Битовая глубина : 16 бит
Метод сжатия : С потерями
Размер потока : 254 Мбайт (1%)
Заголовок : AC3 2.0 / 256 kbps / MVO
Язык : Russian
Default : Нет
Forced : Нет
Аудио #3
Идентификатор : 4
Формат : AC-3
Формат/Информация : Audio Coding 3
Расширение режима : CM (complete main)
Параметр Endianness формата : Big
Идентификатор кодека : A_AC3
Продолжительность : 2 ч. 18 м.
Вид битрейта : Постоянный
Битрейт : 384 Кбит/сек
Каналы : 2 канала
Расположение каналов : Front: L R
Частота : 48,0 КГц
Битовая глубина : 16 бит
Метод сжатия : С потерями
Размер потока : 381 Мбайт (1%)
Заголовок : AC3 2.0 / 384 kbps / AVO - Ю. Живов
Язык : Russian
Default : Нет
Forced : Нет
Аудио #4
Идентификатор : 5
Формат : TrueHD
Идентификатор кодека : A_TRUEHD
Продолжительность : 2 ч. 18 м.
Вид битрейта : Переменный
Максимальный битрейт : 2772 Кбит/сек
Каналы : 6 каналов
Расположение каналов : Front: L C R, Side: L R, LFE
Частота : 48,0 КГц
Метод сжатия : Без потерь
Заголовок : TrueHD 5.1 / 1521 kbps / Original
Язык : English
Default : Нет
Forced : Нет
Аудио #5
Идентификатор : 6
Формат : AC-3
Формат/Информация : Audio Coding 3
Профиль формата : Dolby Digital
Расширение режима : CM (complete main)
Параметр Endianness формата : Big
Идентификатор кодека : A_AC3
Продолжительность : 2 ч. 18 м.
Вид битрейта : Постоянный
Битрейт : 192 Кбит/сек
Каналы : 2 канала
Расположение каналов : Front: L R
Частота : 48,0 КГц
Битовая глубина : 16 бит
Метод сжатия : С потерями
Размер потока : 190 Мбайт (1%)
Заголовок : AC3 2.0 / 192 kbps / Commentary
Язык : English
Default : Нет
Forced : Нет
Текст #1
Идентификатор : 7
Формат : UTF-8
Идентификатор кодека : S_TEXT/UTF8
Идентификатор кодека/Информация : UTF-8 Plain Text
Язык : Russian
Default : Нет
Forced : Нет
Текст #2
Идентификатор : 8
Формат : UTF-8
Идентификатор кодека : S_TEXT/UTF8
Идентификатор кодека/Информация : UTF-8 Plain Text
Язык : English
Default : Нет
Forced : Нет
Меню
00:00:00.000 : en:So This is the World
00:12:44.805 : en:What Had I Become?
00:20:46.203 : en:Dorothy's Flight
00:29:14.335 : en:Everybody Loves You
00:36:32.523 : en:Letting Jerry Go
00:44:46.141 : en:So' Me the Money
00:59:38.283 : en:Free-Falling
01:06:39.870 : en:Do You Know...?
01:18:15.524 : en:Walkin' the Lobby & Cush-Lash
01:28:05.905 : en:Roll with the Punches
01:34:01.427 : en:He's Coming Over
01:37:51.323 : en:Tomorrow's Embarrassment
01:45:43.628 : en:Help Me Help You
01:55:45.939 : en:An Evening Amongst Adults
02:01:03.798 : en:Jazz
02:10:15.390 : en:The Fax

Знаете ли вы, что...

  • По словам Кэмерона Кроу, он утвердил Зеллвегер потому, что она была единственной претенденткой на роль Дороти, которая точно не стала бы флиртовать с Томом Крузом.
Скриншоты:
       
       
Other forum [Profile] [PM]
Display posts from previous:    
Reply to topic

The time now is: Today 22:24

All times are GMT + 3 Hours



You cannot post new topics in this forum
You cannot reply to topics in this forum
You cannot edit your posts in this forum
You cannot delete your posts in this forum
You cannot vote in polls in this forum
You cannot attach files in this forum
You cannot download files in this forum