Today is a free download without charge Download

Охотники на ведьм / Hansel & Gretel: Witch Hunters (Томми Виркола) (Ужасы, Фэнтези, Боевик, 2013) DVD5

Reply to topic
 
Author
Message

Omen ®

Longevity: 8 years 5 months

Posts: 181087

Торрент-статистика

Post 07-Jun-2013 10:21

[Quote]

Охотники на ведьм / Hansel & Gretel: Witch Hunters
«Новый поворот старой истории»
- Русское название: Охотники на ведьм
Оригинальное название: Hansel & Gretel: Witch Hunters
Год выпуска: 2013
Производство: Metro-Goldwyn-Mayer / Paramount Pictures [США & Германия]
Жанр: Ужасы, Фэнтези, Боевик
Перевод: Дублированный [лицензия]
Вид субтитров: Вшитые отключаемые
Язык субтитров: Русский, украинский, английский
Режиссер: Томми Виркола
Продюсер: Уилл Феррелл, Бо Флинн, Крис Хенчи
Актеры: Джереми Реннер, Джемма Артертон, Фамке Янссен, Пихла Виитала, Дерек Мирс, Робин Аткин Даунс, Ингрид Болсай Бердал, Джоэнна Кулиг, Томас Манн, Петер Стормаре
Описание фильма:
Едва не погибнув в лапах ужасной ведьмы, Гензель и Гретель стали только сильнее. Одержимые местью, они ведут отчаянную борьбу со злом, даже не подозревая, что их поджидает нечто более опасное… собственное прошлое…
Дата мировой премьеры: 19 января 2013
Дата российской премьеры: 17 января 2013, «Централ Партнершип»
Дата выхода DVD релиза: 11 июня 2013, «Новый Диск»
Дата выхода Blu-Ray релиза: 11 июня 2013, «Новый Диск»
Рейтинг R - Детям до 17 лет обязательно присутствие родителей
Возраст 18+ - Зрителям, достигшим 18 лет

Продолжительность: 01:24:21
Качество видео: DVD5
Видео: MPEG-2, [email protected] (PAL 16:9), ~5900 kbps, 0.572 bit/pixel
Аудио 1: AC3 5.1, 448 kbps, 48 kHz [Английский - оригинал]
Аудио 2: AC3 5.1, 448 kbps, 48 kHz [Русский - дублированный]
Аудио 3: AC3 5.1, 448 kbps, 48 kHz [Украинский - дублированный]

Дополнительные материалы

Отсутствуют

Отчёт DVDInfo

Title: Охотники.на.ведьм-Hansel.&.Gretel.Witch.Hunters.(2013).DVD5./*spam*/-Lelya_K
Size: 4.36 Gb ( 4 570 140 KBytes ) - DVD-5
Enabled regions: 1, 2, 3, 4, 5, 6, 7, 8
VTS_01 :
Play Length:
Video: PAL 4:3 (720x576) VBR
Subtitles:
  • Not specified
    VTS_02 :
    Play Length:
    Video: PAL 16:9 (720x576) VBR, Auto Letterboxed
    Audio:
  • Not specified (Dolby AC3, 2 ch)
  • Not specified (Dolby AC3, 2 ch)
  • Not specified (Dolby AC3, 2 ch)
  • Not specified (Dolby AC3, 2 ch)
  • Not specified (Dolby AC3, 2 ch)
  • Not specified (Dolby AC3, 2 ch)
  • Not specified (Dolby AC3, 2 ch)
  • Not specified (Dolby AC3, 2 ch)
    Subtitles:
  • Not specified
  • Not specified
  • Not specified
  • Not specified
  • Not specified
  • Not specified
  • Not specified
  • Not specified
  • Not specified
  • Not specified
  • Not specified
  • Not specified
    VTS_03 :
    Play Length: 00:00:20+01:24:21+00:00:15
    Video: PAL 16:9 (720x576) VBR, Auto Pan&Scan
    Audio:
  • English (Dolby AC3, 6 ch)
  • Russian (Dolby AC3, 6 ch)
  • Ukrainian (Dolby AC3, 6 ch)
    Subtitles:
  • English
  • Russian
  • Ukrainian
  • Russian
  • Ukrainian
    VTS_04 :
    Play Length:
    Video: PAL 16:9 (720x576) VBR, Auto Pan&Scan

Отчёт MediaInfo

Полное имя : D:\Охотники.на.ведьм-Hansel.&.Gretel.Witch.Hunters.(2013).DVD5./*spam*/-Lelya_K\VIDEO_TS\VTS_03_4.VOB
Формат : MPEG-PS
Размер файла : 1024 Мбайт
Продолжительность : 19 м.
Режим общего битрейта : Переменный
Общий поток : 7420 Кбит/сек
Видео
Идентификатор : 224 (0xE0)
Формат : MPEG Video
Версия формата : Version 2
Профиль формата : [email protected]
Параметр BVOP формата : Да
Параметр матрицы формата : Выборочная
Продолжительность : 19 м.
Вид битрейта : Переменный
Битрейт : 5929 Кбит/сек
Максимальный битрейт : 9800 Кбит/сек
Ширина : 720 пикселей
Высота : 576 пикселей
Соотношение сторон : 16:9
Частота кадров : 25,000 кадров/сек
Стандарт вещания : Component
Цветовое пространство : YUV
Субдискретизация насыщенности : 4:2:0
Битовая глубина : 8 бит
Тип развёртки : Прогрессивная
Порядок развёртки : Верхнее поле первое
Метод сжатия : С потерями
Бит/(Пиксели*Кадры) : 0.572
Размер потока : 818 Мбайт (80%)
Основные цвета : BT.601 PAL
Характеристики трансфера : BT.470 System B, BT.470 System G
Коэффициенты матрицы : BT.601
Аудио #1
Идентификатор : 189 (0xBD)-128 (0x80)
Формат : AC-3
Формат/Информация : Audio Coding 3
Расширение режима : CM (complete main)
Параметр Endianness формата : Big
Режим смешивания : DVD-Video
Продолжительность : 19 м.
Вид битрейта : Постоянный
Битрейт : 448 Кбит/сек
Каналы : 6 каналов
Расположение каналов : Front: L C R, Side: L R, LFE
Частота : 48,0 КГц
Битовая глубина : 16 бит
Метод сжатия : С потерями
Задержка видео : -344 мс.
Размер потока : 61,8 Мбайт (6%)
Аудио #2
Идентификатор : 189 (0xBD)-129 (0x81)
Формат : AC-3
Формат/Информация : Audio Coding 3
Расширение режима : CM (complete main)
Параметр Endianness формата : Big
Режим смешивания : DVD-Video
Продолжительность : 19 м.
Вид битрейта : Постоянный
Битрейт : 448 Кбит/сек
Каналы : 6 каналов
Расположение каналов : Front: L C R, Side: L R, LFE
Частота : 48,0 КГц
Битовая глубина : 16 бит
Метод сжатия : С потерями
Задержка видео : -376 мс.
Размер потока : 61,8 Мбайт (6%)
Аудио #3
Идентификатор : 189 (0xBD)-130 (0x82)
Формат : AC-3
Формат/Информация : Audio Coding 3
Расширение режима : CM (complete main)
Параметр Endianness формата : Big
Режим смешивания : DVD-Video
Продолжительность : 19 м.
Вид битрейта : Постоянный
Битрейт : 448 Кбит/сек
Каналы : 6 каналов
Расположение каналов : Front: L C R, Side: L R, LFE
Частота : 48,0 КГц
Битовая глубина : 16 бит
Метод сжатия : С потерями
Задержка видео : -376 мс.
Размер потока : 61,8 Мбайт (6%)
Меню

Изготовление релиза

Исходник: [url=/forum/viewtopic.php?t=665737]Охотники на ведьм / Hansel & Gretel: Witch Hunters (2013) DVD9[/url] (R5)
Удалены: дополнительные материалы, предупреждения и заставки.
Видео не сжималось!
Меню: статичное, недействующие кнопки затерты и закрыты.
Обработка: DVD ReMake Pro + Работа с меню (Adobe PhotoShop и MuxMan).

Скриншоты меню

       
Скриншоты:
       
       
Other forum [Profile] [PM]
Display posts from previous:    
Reply to topic

The time now is: Today 01:46

All times are GMT + 3 Hours



You cannot post new topics in this forum
You cannot reply to topics in this forum
You cannot edit your posts in this forum
You cannot delete your posts in this forum
You cannot vote in polls in this forum
You cannot attach files in this forum
You cannot download files in this forum