Today is a free download without charge Download

Ambulance LTD - Sugar Pill [2010, Indie Rock, BDRemux]

Reply to topic
 
Author
Message

Omen ®

Longevity: 8 years 4 months

Posts: 181087

Торрент-статистика

Post 07-Jun-2013 05:03

[Quote]

Ambulance LTD - Sugar Pill
Жанр: Indie Rock
Продолжительность: 00:04:41
Год выпуска: 2010
Описание: Клип к фильму Takers на композицию Ambulance LTD - Sugar Pill.
Качество: BDRemux
Контейнер: M2TS
Видео кодек: H.264
Аудио кодек: LPCM
Видео: MPEG4 AVC/H.264, 1920x1080, ~20600kbps, 29.970fps
Аудио: LPCM 2ch, 48kHz, 1536kbps

Отчёт MediaInfo

ОбщееИдентификатор : 0 (0x0)Полное имя : Ambulance LTD - Sugar Pill - Takers 2010 BDRemux 1080p.m2tsФормат : BDAVФормат/Информация : Blu-ray VideoРазмер файла : 774 МбайтПродолжительность : 4 м. 41 с.Режим общего битрейта : ПеременныйОбщий поток : 23,1 Мбит/секМаксимальный общий битрейт : 48,0 Мбит/сек
ВидеоИдентификатор : 4113 (0x1011)Идентификатор меню : 1 (0x1)Формат : AVCФормат/Информация : Advanced Video CodecПрофиль формата : Н[email protected]Параметр CABAC формата : ДаПараметр ReFrames формата : 2 кадраПараметр GOP формата : M=3, N=15Идентификатор кодека : 27Продолжительность : 4 м. 41 с.Вид битрейта : ПеременныйБитрейт : 20,6 Мбит/секМаксимальный битрейт : 36,1 Мбит/секШирина : 1920 пикселейВысота : 1080 пикселейСоотношение сторон : 16:9Частота кадров : 29,970 кадров/секСтандарт вещания : NTSCЦветовое пространство : YUVСубдискретизация насыщенности : 4:2:0Битовая глубина : 8 битТип развёртки : MBAFFБит/(Пиксели*Кадры) : 0.332Размер потока : 691 Мбайт (89%)Основные цвета : BT.709Характеристики трансфера : BT.709Коэффициенты матрицы : BT.709
АудиоИдентификатор : 4352 (0x1100)Идентификатор меню : 1 (0x1)Формат : PCMПараметр Endianness формата : BigПараметр Sign формата : SignedРежим смешивания : Blu-rayИдентификатор кодека : 128Продолжительность : 4 м. 41 с.Вид битрейта : ПостоянныйБитрейт : 1536 Кбит/секКаналы : 2 каналаРасположение каналов : Front: L RЧастота : 48,0 КГцБитовая глубина : 16 битРазмер потока : 51,5 Мбайт (7%)

Скриншоты


Other forum [Profile] [PM]
Display posts from previous:    
Reply to topic

The time now is: Today 06:29

All times are GMT + 3 Hours



You cannot post new topics in this forum
You cannot reply to topics in this forum
You cannot edit your posts in this forum
You cannot delete your posts in this forum
You cannot vote in polls in this forum
You cannot attach files in this forum
You cannot download files in this forum