Today is a free download without charge Download

Judas Priest - Epitaph [2013, Heavy Metal, BDRip 720p]

Reply to topic
 
Author
Message

Omen ®

Longevity: 8 years 3 months

Posts: 181087

Торрент-статистика

Post 07-Jun-2013 00:59

[Quote]

Judas Priest - Epitaph
Жанр: Heavy Metal
Продолжительность: 02:22:30
Год выпуска: 2013
Треклист:
1 Battle Hymn
2 Rapid Fire
3 Metal Gods
4 Heading Out to the Highway
5 Judas Rising
6 Starbreaker
7 Victim of Changes
8 Never Satisfied
9 Diamonds and Rust
10 Prophecy
11 Night Crawler
12 Turbo Lover
13 Beyond the Realms of Death
14 The Sentinel
15 Blood Red Skies
16 The Green Manalishi (With the Two-Pronged Crown)
17 Breaking the Law
18 Painkiller
19 The Hellion
20 Electric Eye
21 Hell Bent for Leather
22 You've Got Another Thing Coming
23 Living After Midnight
Качество: BDRip 720p
Контейнер: MKV
Видео кодек: H.264
Аудио кодек: DTS
Видео: AVC, 1280*720, 5500 Kb/s, 29.970 fps
Аудио: DTS, 1509 Kb/s, 48.0 KHz, 6 channels

Отчёт MediaInfo / BDInfo

GeneralUnique ID : 192827795662306320707193757862454268679 (0x9111485701CC985DB335F48A87329307)Complete name : /Users/Gedosha/Desktop/-=Judas.Priest-Epitaph.2013.BDRip.(720p)-MediaClub=-.mkvFormat : MatroskaFormat version : Version 2File size : 6.98 GiBDuration : 2h 22mnOverall bit rate : 7 008 KbpsMovie name : Judas Priest - Epitaph (MediaClub-kaspr)Encoded date : UTC 2013-06-04 18:19:28Writing application : mkvmerge v5.7.0 ('The Whirlwind') built on Aug 7 2012 14:11:40Writing library : libebml v1.2.3 + libmatroska v1.3.0
VideoID : 1Format : AVCFormat/Info : Advanced Video CodecFormat profile : [email protected] settings, CABAC : YesFormat settings, ReFrames : 8 framesCodec ID : V_MPEG4/ISO/AVCDuration : 2h 22mnBit rate : 5 500 KbpsWidth : 1 280 pixelsHeight : 720 pixelsDisplay aspect ratio : 16:9Frame rate mode : ConstantFrame rate : 29.970 fpsColor space : YUVChroma subsampling : 4:2:0Bit depth : 8 bitsScan type : ProgressiveBits/(Pixel*Frame) : 0.199Stream size : 5.33 GiB (76%)Title : Judas Priest - Epitaph (MediaClub-kaspr)Writing library : x264 core 130 r2273 b3065e6Encoding settings : cabac=1 / ref=8 / deblock=1:-3:-3 / analyse=0x3:0x133 / me=umh / subme=10 / psy=1 / psy_rd=1.00:0.00 / mixed_ref=1 / me_range=32 / chroma_me=1 / trellis=2 / 8x8dct=1 / cqm=0 / deadzone=21,11 / fast_pskip=0 / chroma_qp_offset=-2 / threads=12 / lookahead_threads=2 / sliced_threads=0 / nr=0 / decimate=0 / interlaced=0 / bluray_compat=0 / constrained_intra=0 / bframes=8 / b_pyramid=2 / b_adapt=2 / b_bias=0 / direct=3 / weightb=1 / open_gop=0 / weightp=2 / keyint=250 / keyint_min=25 / scenecut=40 / intra_refresh=0 / rc=2pass / mbtree=0 / bitrate=5500 / ratetol=1.0 / qcomp=0.60 / qpmin=0 / qpmax=69 / qpstep=4 / cplxblur=20.0 / qblur=0.5 / ip_ratio=1.40 / pb_ratio=1.30 / aq=1:1.00Default : YesForced : No
AudioID : 2Format : DTSFormat/Info : Digital Theater SystemsMode : 16Format settings, Endianness : BigCodec ID : A_DTSDuration : 2h 22mnBit rate mode : ConstantBit rate : 1 509 KbpsChannel(s) : 6 channelsChannel positions : Front: L C R, Side: L R, LFESampling rate : 48.0 KHzBit depth : 24 bitsCompression mode : LossyStream size : 1.50 GiB (22%)Language : EnglishDefault : YesForced : Yes
Menu00:00:00.000 : en:Heading Out to the Highway00:00:57.057 : en:Victim of Changes00:05:23.323 : en:Diamonds and Rust00:09:36.576 : en:Beyond the Realms of Death00:14:59.898 : en:The Green Manalishi (With the Two Pronged Crown)00:19:23.162 : en:Breaking the Law00:23:57.436 : en:The Hellion00:35:25.123 : en:Hell Bent for Leather00:41:14.472 : en:You've Got Another Thing Comin'00:47:06.824 : en:Battle Hymn00:53:19.196 : en:Rapid Fire00:59:53.590 : en:Metal Gods01:05:47.944 : en:Judas Rising01:14:03.439 : en:Starbreaker01:20:32.828 : en:Never Satisfied01:28:04.279 : en:Prophecy01:33:28.603 : en:Night Crawler01:36:25.780 : en:Turbo Lover01:45:27.321 : en:The Sentinel01:46:10.363 : en:Blood Red Skies01:50:48.642 : en:Painkiller01:56:54.007 : en:Electric Eye02:12:24.937 : en:Living After Midnight02:21:24.476 : en:Credits

Скриншоты

Other forum [Profile] [PM]
Display posts from previous:    
Reply to topic

The time now is: Today 07:55

All times are GMT + 3 Hours



You cannot post new topics in this forum
You cannot reply to topics in this forum
You cannot edit your posts in this forum
You cannot delete your posts in this forum
You cannot vote in polls in this forum
You cannot attach files in this forum
You cannot download files in this forum