Today is a free download without charge Download

То, что ты делаешь! / That Thing You Do! (Том Хэнкс / Tom Hanks) (Комедия, Музыка, Драма, 1996) BDRip [720p] [Режиссёрская версия / Director's Cut]

Reply to topic
 
Author
Message

Omen ®

Longevity: 8 years 5 months

Posts: 181087

Торрент-статистика

Post 06-Jun-2013 21:09

[Quote]

То, что ты делаешь! / That Thing You Do! - Русское название: То, что ты делаешь! (Режиссёрская версия)
Оригинальное название: That Thing You Do! (Director's Cut)
Год выпуска: 1996
Жанр: Комедия, Музыка, Драма
Описание фильма:
60-e годы прошлого века. Молодой продавец магазина бытовой техники соглашается подменить на местном конкурсе молодых талантов получившего травму барабанщика группы. Это событие обернулось космическим взлетом новых звезд. Быстрее, чем вы успеете произнести "то, что ты делаешь", менеджер студии грамзаписи записывает музыку ребят и в одночасье делает их знаменитыми, ибо их композиция стремительно поднялась на первую строчку хит-парадов.
Режиссер: Том Хэнкс / Tom Hanks
Актеры: Том Эверетт Скотт, Лив Тайлер, Джонатон Шаех, Стив Зан, Итэн Эмбри, Том Хэнкс, Шарлиз Терон, Обба Бабатунде, Джованни Рибизи, Крис Элли, Алекс Рокко, Билл Коббс, Питер Сколари, Рита Уилсон, Крис Айзек (Tom Everett Scott, Liv Tyler, Johnathon Schaech, Steve Zahn, Ethan Embry, Tom Hanks, Charlize Theron, Obba Babatunde, Giovanni Ribisi, Chris Ellis, Alex Rocco, Bill Cobbs, Peter Scolari, Rita Wilson, Chris Isaak)
Продолжительность: 02:27:33
Перевод: Авторский (одноголосый, закадровый) Юрий Сербин
Язык субтитров: английский-
Дата мировой премьеры: 14 сентября 1996
Релиз на DVD (РФ): 9 апреля 2009, «Двадцатый Век Фокс СНГ»-Релиз от:
Видеокодек: MPEG-4 AVC/H.264
Битрейт видео: ~ 4852 Кбит/сек
Размер кадра: 1280x688
Качество видео: BDRip
Аудио:
Аудио#1: DTS 5.1 / 48 kHz / 1509 kbps / 24-bit - Юрий Сербин
Аудио#2: DTS 5.1 / 48 kHz / 1509 kbps / 24-bit - Английская

MediaInfo 0.7.61

Общее
Уникальный идентификатор : 183693722318284390918245267804641910819 (0x8A321FC1248840DF9B2109E186DD6023)
Полное имя : D:\Мои документы\Кинофильмы\Кино\Мои раздачи (незаболваненные)\That.Thing.You.Do.1996.EXTENDED.720p.BluRay.Serbin.mkv
Формат : Matroska
Версия формата : Version 4 / Version 2
Размер файла : 8,11 Гбайт
Продолжительность : 2 ч. 27 м.
Общий поток : 7871 Кбит/сек
Дата кодирования : UTC 2013-06-04 18:12:44
Программа кодирования : mkvmerge v6.2.0 ('Promised Land') built on Apr 28 2013 12:22:01
Библиотека кодирования : libebml v1.3.0 + libmatroska v1.4.0
Видео
Идентификатор : 1
Формат : AVC
Формат/Информация : Advanced Video Codec
Профиль формата : [url=mailto:[email protected]][email protected][/url]
Параметр CABAC формата : Да
Параметр ReFrames формата : 5 кадров
Идентификатор кодека : V_MPEG4/ISO/AVC
Продолжительность : 2 ч. 27 м.
Битрейт : 4852 Кбит/сек
Ширина : 1280 пикселей
Высота : 688 пикселей
Соотношение сторон : 1,85:1
Режим частоты кадров : Постоянный
Частота кадров : 23,976 кадра/сек
Цветовое пространство : YUV
Субдискретизация насыщенности : 4:2:0
Битовая глубина : 8 бит
Тип развёртки : Прогрессивная
Бит/(Пиксели*Кадры) : 0.230
Размер потока : 4,84 Гбайт (60%)
Библиотека кодирования : x264 core 130 r2273 b3065e6
Настройки программы : cabac=1 / ref=5 / deblock=1:-3:-3 / analyse=0x3:0x113 / me=umh / subme=8 / psy=1 / psy_rd=1.00:0.00 / mixed_ref=1 / me_range=16 / chroma_me=1 / trellis=1 / 8x8dct=1 / cqm=0 / deadzone=21,11 / fast_pskip=1 / chroma_qp_offset=-2 / threads=6 / lookahead_threads=1 / sliced_threads=0 / nr=0 / decimate=1 / interlaced=0 / bluray_compat=0 / constrained_intra=0 / bframes=3 / b_pyramid=2 / b_adapt=2 / b_bias=0 / direct=3 / weightb=1 / open_gop=0 / weightp=2 / keyint=240 / keyint_min=24 / scenecut=40 / intra_refresh=0 / rc_lookahead=50 / rc=2pass / mbtree=1 / bitrate=4852 / ratetol=1.0 / qcomp=0.60 / qpmin=0 / qpmax=69 / qpstep=4 / cplxblur=20.0 / qblur=0.5 / ip_ratio=1.40 / aq=1:1.00
Язык : English
Default : Да
Forced : Нет
Аудио #1
Идентификатор : 2
Формат : DTS
Формат/Информация : Digital Theater Systems
Режим : 16
Параметр Endianness формата : Big
Идентификатор кодека : A_DTS
Продолжительность : 2 ч. 27 м.
Вид битрейта : Постоянный
Битрейт : 1509 Кбит/сек
Каналы : 6 каналов
Расположение каналов : Front: L C R, Side: L R, LFE
Частота : 48,0 КГц
Битовая глубина : 24 бит
Метод сжатия : С потерями
Размер потока : 1,56 Гбайт (19%)
Заголовок : Serbin DTS
Язык : Russian
Default : Да
Forced : Нет
Аудио #2
Идентификатор : 3
Формат : DTS
Формат/Информация : Digital Theater Systems
Режим : 16
Параметр Endianness формата : Big
Идентификатор кодека : A_DTS
Продолжительность : 2 ч. 27 м.
Вид битрейта : Постоянный
Битрейт : 1509 Кбит/сек
Каналы : 6 каналов
Расположение каналов : Front: L C R, Side: L R, LFE
Частота : 48,0 КГц
Битовая глубина : 24 бит
Метод сжатия : С потерями
Размер потока : 1,56 Гбайт (19%)
Язык : English
Default : Нет
Forced : Нет
Текст #1
Идентификатор : 4
Формат : UTF-8
Идентификатор кодека : S_TEXT/UTF8
Идентификатор кодека/Информация : UTF-8 Plain Text
Заголовок : SDH
Язык : English
Default : Нет
Forced : Нет
Текст #2
Идентификатор : 5
Формат : UTF-8
Идентификатор кодека : S_TEXT/UTF8
Идентификатор кодека/Информация : UTF-8 Plain Text
Язык : English
Default : Нет
Forced : Нет
Меню
00:00:00.000 : en:00:00:00.000
00:03:52.983 : en:00:03:52.983
00:08:34.180 : en:00:08:34.180
00:11:05.582 : en:00:11:05.582
00:13:20.091 : en:00:13:20.091
00:16:13.848 : en:00:16:13.848
00:18:34.780 : en:00:18:34.780
00:21:12.396 : en:00:21:12.396
00:24:53.492 : en:00:24:53.492
00:31:15.957 : en:00:31:15.957
00:33:11.781 : en:00:33:11.781
00:34:33.279 : en:00:34:33.279
00:35:43.975 : en:00:35:43.975
00:37:04.472 : en:00:37:04.472
00:41:53.761 : en:00:41:53.761
00:43:41.244 : en:00:43:41.244
00:46:57.481 : en:00:46:57.481
00:48:19.188 : en:00:48:19.188
00:56:36.852 : en:00:56:36.852
01:00:15.111 : en:01:00:15.111
01:06:03.167 : en:01:06:03.167
01:10:18.673 : en:01:10:18.673
01:14:09.695 : en:01:14:09.695
01:19:28.388 : en:01:19:28.388
01:22:29.111 : en:01:22:29.111
01:27:02.926 : en:01:27:02.926
01:32:36.968 : en:01:32:36.968
01:39:29.547 : en:01:39:29.547
01:40:00.828 : en:01:40:00.828
01:41:17.154 : en:01:41:17.154
01:42:21.927 : en:01:42:21.927
01:47:48.378 : en:01:47:48.378
01:52:46.009 : en:01:52:46.009
01:56:49.002 : en:01:56:49.002
02:00:29.097 : en:02:00:29.097
02:04:28.169 : en:02:04:28.169
02:08:35.582 : en:02:08:35.582
02:13:38.135 : en:02:13:38.135
02:18:39.978 : en:02:18:39.978
02:21:12.213 : en:02:21:12.213

Награды:

Оскар, 1997 год
Номинации (1):
Лучшая песня — «That Thing You Do!»
Золотой глобус, 1997 год
Номинации (1):
Лучшая песня — «That Thing You Do!»

Доп. информация:

Перевод этого отличного фильма осуществлен благодаря финансовым вкладам участников двух сайтов /*spam*/ и клуба e180. Огромное спасибо данным благородным донам:
/*spam*/:
1. anton966
2. gemini
3. Lebowski
4. scoopy
5. Dr. Destructo
6. rocky4
7. denis_mgn_1987
8. Inspektor
9. zetrob
10. ochkarik1
11. Loki1982
12. dsk71
E180:
1. Nadoelo
2. Daniel Rock
3. vik19662007
4. Некрасов
5. ilbilb
6. Palmer Eldritch
7. Werewolf77
8. Ragnarok
За работу с дорогами огромное спасибо Bloodymetall
Скриншоты:

       
       
Other forum [Profile] [PM]
Display posts from previous:    
Reply to topic

The time now is: Today 10:39

All times are GMT + 3 Hours



You cannot post new topics in this forum
You cannot reply to topics in this forum
You cannot edit your posts in this forum
You cannot delete your posts in this forum
You cannot vote in polls in this forum
You cannot attach files in this forum
You cannot download files in this forum