Today is a free download without charge Download

Процесс и ошибка / Trial and Error (Джонатан Линн) (Комедия, Мелодрама, 1997) DVDRip [H.264]

Reply to topic
 
Author
Message

Omen ®

Longevity: 8 years 11 months

Posts: 181086

Торрент-статистика

Post 06-Jun-2013 21:06

[Quote]

Процесс и ошибка / Trial and Error -«What's a courtroom circus without a couple of clowns?»- Русское название: Процесс и ошибка
Оригинальное название: Trial and Error
Год выпуска: 1997
Жанр: Комедия, Мелодрама
Производство: США / Larger Than Life Productions, New Line Cinema
Описание фильма:
Профессиональный адвокат Чарльз Туттл должен защищать в суде интересы Бенни, погоревшего на мошенничестве.
Буквально за день до начала процесса Чарльз напивается и оказывается не в состоянии быть в суде, поэтому он просит своего друга, актера — неудачника Рикки Ритти, «подменить» его на слушании…
Перевоплотившись в адвоката, Рикки приходит в суд…
Режиссер: Джонатан Линн
Сценарий: Сара Бернштейн, Грегори Бернштейн, Клифф Гарднер
Продюсер: Джонатан Линн, Гэри Росс, Аллен Олсоубрук
Актеры: Майкл Ричардс, Джефф Дэниелс, Шарлиз Терон, Джессика Стин, Остин Пендлтон, Рип Торн, Александра Уэнтуорт, Дженнифер Кулидж, Лоуренс Прессман, Дейл Дай
Продолжительность: 01:38:12
Перевод: Многоголосый закадровый

Дата мировой премьеры: 30 мая 1997
Дата выхода DVD релиза: 9 октября 2008, «CP-Digital»
Видеокодек: MPEG-4 AVC/H.264
Битрейт видео: ~1960 Кбит/сек
Размер кадра: 720x368
Качество видео: DVDRip
Аудиокодек: AC3 5.1
Битрейт аудио: 448 Кбит/сек

MediaInfo:

General
Unique ID : 212276774197217544165418873195089801677 (0x9FB30504028325D28292BFC917B6B1CD)
Complete name : H:\Downloads\Процесс и ошибка.mkv
Format : Matroska
Format version : Version 4 / Version 2
File size : 1.65 GiB
Duration : 1h 38mn
Overall bit rate : 2 409 Kbps
Encoded date : UTC 2013-06-04 12:58:06
Writing application : mkvmerge v6.0.0 ('Coming Up For Air') built on Jan 20 2013 09:52:00
Writing library : libebml v1.3.0 + libmatroska v1.4.0
Video
ID : 1
Format : AVC
Format/Info : Advanced Video Codec
Format profile : [url=mailto:[email protected]][email protected][/url]
Format settings, CABAC : Yes
Format settings, ReFrames : 8 frames
Codec ID : V_MPEG4/ISO/AVC
Duration : 1h 38mn
Bit rate : 1 960 Kbps
Width : 720 pixels
Height : 368 pixels
Display aspect ratio : 1.957
Frame rate mode : Constant
Frame rate : 23.976 fps
Color space : YUV
Chroma subsampling : 4:2:0
Bit depth : 8 bits
Scan type : Progressive
Bits/(Pixel*Frame) : 0.309
Stream size : 1.31 GiB (79%)
Title : Trial and Error
Writing library : x264 core 125 r2208 d9d2288
Encoding settings : cabac=1 / ref=8 / deblock=1:-1:-1 / analyse=0x3:0x133 / me=umh / subme=9 / psy=1 / psy_rd=1.00:0.10 / mixed_ref=1 / me_range=32 / chroma_me=1 / trellis=2 / 8x8dct=1 / cqm=0 / deadzone=21,11 / fast_pskip=0 / chroma_qp_offset=-3 / threads=6 / lookahead_threads=1 / sliced_threads=0 / nr=0 / decimate=1 / interlaced=0 / bluray_compat=0 / constrained_intra=0 / bframes=3 / b_pyramid=2 / b_adapt=2 / b_bias=0 / direct=3 / weightb=1 / open_gop=0 / weightp=2 / keyint=250 / keyint_min=25 / scenecut=40 / intra_refresh=0 / rc_lookahead=60 / rc=2pass / mbtree=1 / bitrate=1960 / ratetol=1.0 / qcomp=0.60 / qpmin=10 / qpmax=51 / qpstep=4 / cplxblur=20.0 / qblur=0.5 / ip_ratio=1.40 / aq=1:1.00
Language : English
Default : Yes
Forced : No
Audio
ID : 2
Format : AC-3
Format/Info : Audio Coding 3
Mode extension : CM (complete main)
Format settings, Endianness : Big
Codec ID : A_AC3
Duration : 1h 38mn
Bit rate mode : Constant
Bit rate : 448 Kbps
Channel(s) : 6 channels
Channel positions : Front: L C R, Side: L R, LFE
Sampling rate : 48.0 KHz
Bit depth : 16 bits
Compression mode : Lossy
Stream size : 315 MiB (19%)
Title : Многоголосый закадровый
Language : Russian
Default : Yes
Forced : No
Скриншоты:                    
Other forum [Profile] [PM]
Display posts from previous:    
Reply to topic

The time now is: Today 14:20

All times are GMT + 3 Hours



You cannot post new topics in this forum
You cannot reply to topics in this forum
You cannot edit your posts in this forum
You cannot delete your posts in this forum
You cannot vote in polls in this forum
You cannot attach files in this forum
You cannot download files in this forum