Today is a free download without charge Download

Иллюминация / Iluminacja (Кшиштоф Занусси / Krzysztof Zanussi) [1973, Польша, драма, HDTVRip 720p] MVO (Видеоимпульс) + 2x Sub (Rus, Eng) + Original Pol

Reply to topic
 
Author
Message

Omen ®

Longevity: 8 years 5 months

Posts: 181087

Торрент-статистика

Post 06-Jun-2013 20:55

[Quote]

Иллюминация / Iluminacja
Страна: Польша
Жанр: драма
Год выпуска: 1973
Продолжительность: 01:28:43
Перевод: Профессиональный (многоголосый закадровый) Видеоимпульс
Cубтитры: русские, английские
Оригинальная аудиодорожка: польский-Режиссер: Кшиштоф Занусси / Krzysztof Zanussi
В ролях: Станислав Латалло, Малгожата Притуляк, Моника Дзенисевич-Ольбрыхска, Эдвард Жебровский, Ян Скотницкий, Ирена Хорецка, Ядвига Колонна-Валевска, Влодзимеж Зонн, Влодзимеж Завадский
-
Описание: Франтишеку Ратману пришлось приложить немало усилий, чтобы попасть на обучение в Варшаву, на факультет физики. Именно физика, по убеждению героя, является наукой, дающей чёткие и конкретные ответы на поставленные вопросы. Со временем жизненный опыт и любовные перипетии ставят под сомнение эту уверенность. Франтишек тяжело переживает смерть друга в Татрах.
В горах он знакомится с девушкой, и недолгий роман заканчивается женитьбой, поскольку молодые люди ожидают ребёнка. Обстоятельства и обязанность содержать семью заставляют Франтишека оставить обучение, устроиться на фабрику и принять участие в экспериментах неврологической клиники. Но поиски сущности бытия для главного героя на этом не заканчиваются, ведь впереди долгая жизнь….

Тип релиза: HDTVRip 720p
Контейнер: MKV
Видео: H264 / PAL 16:9 / 1194x720 (1,66:1) / 6900 kbps / 25 fps / 0.321 bit/pixel / [email protected]
Аудио 1: Russian / AC3 / 48 kHz / 2 CH / 192 kbps / 16 bit / MVO
Аудио 2: Polish / AC3 / 48 kHz / 2 Ch / 384 kbps / 16 bit / Original
Формат субтитров: softsub (SRT)
Навигация по главам: есть

MediaInfo

Общее
Уникальный идентификатор : 207595868074494186475789243193636397984 (0x9C2D82868CD99F7C82C69E32DAE3A3A0)
Полное имя : W:\HDTV\Iluminacja.1973.HDTVRip.720p.mkv
Формат : Matroska
Версия формата : Version 4 / Version 2
Размер файла : 4,63 Гбайт
Продолжительность : 1 ч. 28 м.
Общий поток : 7474 Кбит/сек
Дата кодирования : UTC 2013-06-05 17:56:23
Программа кодирования : mkvmerge v6.2.0 ('Promised Land') built on Apr 28 2013 12:22:01
Библиотека кодирования : libebml v1.3.0 + libmatroska v1.4.0
Видео
Идентификатор : 1
Формат : AVC
Формат/Информация : Advanced Video Codec
Профиль формата : [email protected]
Параметр CABAC формата : Да
Параметр ReFrames формата : 9 кадров
Идентификатор кодека : V_MPEG4/ISO/AVC
Продолжительность : 1 ч. 28 м.
Битрейт : 6900 Кбит/сек
Ширина : 1194 пикселя
Высота : 720 пикселей
Соотношение сторон : 1,658
Режим частоты кадров : Постоянный
Частота кадров : 25,000 кадров/сек
Цветовое пространство : YUV
Субдискретизация насыщенности : 4:2:0
Битовая глубина : 8 бит
Тип развёртки : Прогрессивная
Бит/(Пиксели*Кадры) : 0.321
Размер потока : 4,18 Гбайт (90%)
Библиотека кодирования : x264 core 130 r2273 b3065e6
Настройки программы : cabac=1 / ref=9 / deblock=1:-3:-3 / analyse=0x3:0x113 / me=umh / subme=10 / psy=1 / psy_rd=1.05:0.00 / mixed_ref=1 / me_range=24 / chroma_me=1 / trellis=2 / 8x8dct=1 / cqm=0 / deadzone=21,11 / fast_pskip=0 / chroma_qp_offset=-2 / threads=12 / lookahead_threads=2 / sliced_threads=0 / nr=0 / decimate=0 / interlaced=0 / bluray_compat=0 / constrained_intra=0 / bframes=8 / b_pyramid=2 / b_adapt=2 / b_bias=0 / direct=3 / weightb=1 / open_gop=0 / weightp=2 / keyint=250 / keyint_min=25 / scenecut=40 / intra_refresh=0 / rc=2pass / mbtree=0 / bitrate=6900 / ratetol=1.0 / qcomp=0.75 / qpmin=0 / qpmax=69 / qpstep=4 / cplxblur=20.0 / qblur=0.5 / ip_ratio=1.20 / pb_ratio=1.10 / aq=1:0.65
Язык : Polish
Default : Да
Forced : Нет
Аудио #1
Идентификатор : 2
Формат : AC-3
Формат/Информация : Audio Coding 3
Расширение режима : CM (complete main)
Параметр Endianness формата : Big
Идентификатор кодека : A_AC3
Продолжительность : 1 ч. 28 м.
Вид битрейта : Постоянный
Битрейт : 192 Кбит/сек
Каналы : 2 канала
Расположение каналов : Front: L R
Частота : 48,0 КГц
Битовая глубина : 16 бит
Метод сжатия : С потерями
Размер потока : 122 Мбайт (3%)
Заголовок : MVO
Язык : Russian
Default : Да
Forced : Нет
Аудио #2
Идентификатор : 3
Формат : AC-3
Формат/Информация : Audio Coding 3
Расширение режима : CM (complete main)
Параметр Endianness формата : Big
Идентификатор кодека : A_AC3
Продолжительность : 1 ч. 28 м.
Вид битрейта : Постоянный
Битрейт : 384 Кбит/сек
Каналы : 2 канала
Расположение каналов : Front: L R
Частота : 48,0 КГц
Битовая глубина : 16 бит
Метод сжатия : С потерями
Размер потока : 244 Мбайт (5%)
Заголовок : Original
Язык : Polish
Default : Нет
Forced : Нет
Текст #1
Идентификатор : 4
Формат : UTF-8
Идентификатор кодека : S_TEXT/UTF8
Идентификатор кодека/Информация : UTF-8 Plain Text
Заголовок : RUS / DVD
Язык : Russian
Default : Нет
Forced : Нет
Текст #2
Идентификатор : 5
Формат : UTF-8
Идентификатор кодека : S_TEXT/UTF8
Идентификатор кодека/Информация : UTF-8 Plain Text
Заголовок : ENG
Язык : English
Default : Нет
Forced : Нет
Меню
00:00:00.000 : :Chapter 01
00:07:00.600 : :Chapter 02
00:12:39.000 : :Chapter 03
00:19:04.800 : :Chapter 04
00:26:02.400 : :Chapter 05
00:32:29.400 : :Chapter 06
00:41:47.400 : :Chapter 07
00:49:51.000 : :Chapter 08
00:56:49.200 : :Chapter 09
01:03:24.600 : :Chapter 10
01:12:42.600 : :Chapter 11
01:19:49.200 : :Chapter 12
01:27:27.600 : :Chapter 13

Скриншоты

Other forum [Profile] [PM]
Display posts from previous:    
Reply to topic

The time now is: Today 12:10

All times are GMT + 3 Hours



You cannot post new topics in this forum
You cannot reply to topics in this forum
You cannot edit your posts in this forum
You cannot delete your posts in this forum
You cannot vote in polls in this forum
You cannot attach files in this forum
You cannot download files in this forum