Today is a free download without charge Download

Громила и скороход / Thunderbolt and Lightfoot (Майкл Чимино/Michael Cimino) (Драма, комедия, криминал, 1974) DVD9

Reply to topic
 
Author
Message

Omen ®

Longevity: 8 years 5 months

Posts: 181087

Торрент-статистика

Post 06-Jun-2013 20:26

[Quote]

Громила и скороход / Thunderbolt and Lightfoot - Русское название: Громила и скороход
Оригинальное название: Thunderbolt and Lightfoot
Год выпуска: 1974
Производство: США , Malpaso Company
Жанр: Драма, комедия, криминал
Перевод: Профессиональный (многоголосный, закадровый)
Язык субтитров: Русский
Вид субтитров: Вшитые (отключаемые)

Дата мировой премьеры: 23 мая 1974
Релиз на DVD: 12 апреля 2012, «Neoclassica»
Бюджет: $4 000 000
Cборы в СШA: $21 700 000
Режиссер: Майкл Чимино/Michael Cimino
Cценарий: Майкл Чимино/Michael Cimino
Актеры: Клинт Иствуд, Джефф Бриджес, Джеффри Льюис, Кэтрин Бах, Гэри Бьюзи, Джек Додсон, Джин Элман, Бертон Гиллиам, Рой Дженсон, Клаудия Леннир, Билл МакКинни, Вик Тейбэк, Даб Тейлор, Грегори Уэлкотт, Эрика Хэйген и др.
Описание фильма:
Молодой бродяга по прозвищу Скороход не унывает: по мелочам нарушает закон, угоняет у торговцев подержанные машины и мечтает о новом "Кадиллаке", который когда-нибудь сможет купить за наличные. Однажды, разъезжая по полям на только что угнанной развалюхе, он спасает от пули человека в одежде священника. На поверку его новый спутник оказывается ни кем иным, как знаменитым грабителем по прозвищу Громила. В прошлом герой войны, он прославился своим дерзким ограблением семилетней давности, преодолев сложнейшую систему охраны банковского хранилища простой пальбой из зенитки. Но добычу, спрятанную Громилой, забрать не удалось, и теперь его преследуют бывшие подельники, чтобы отомстить. Когда в конце концов им удается взять Громилу и Скорохода на мушку, Скороход предлагает бывшим друзьям безумный план: чтобы компенсировать потерянные деньги, ограбить тот же самый банк тем же способом...
Дополнительные материалы:
- Оригинальный трейлер
- Фильмографии
- Анонсы
Продолжительность: 01:50:13
Качество: DVD
Формат: DVD9
Видео кодек: MPEG-2
Битрейт видео: 7093 Кбит/сек
Размер кадра: [email protected] PAL 16:9 VBR, Auto Letterboxed
Аудио#1: Русский АС-3 2.0 192 Кбит/сек 48,0 КГц 16 бит
Аудио#2: Английский АС-3 2.0 192 Кбит/сек 48,0 КГц 16 бит

Скриншоты меню

     
       
Скриншоты:
       
       

DVDInfo

Title: Gromila_i_skorokhod_DVD9
Size: 6.75 Gb ( 7 074 790,00 KBytes ) - DVD-9
Enabled regions: 1, 2, 3, 4, 5, 6, 7, 8
VTS_01 :
Play Length: 00:00:01
Video: PAL 16:9 (720x576) VBR, Auto Letterboxed
Audio:
  • Russian (Dolby AC3, 2 ch)
  • English (Dolby AC3, 2 ch)
    Subtitles:
  • Russian
    VTS_02 :
    Play Length: 01:50:13+00:00:01
    Video: PAL 16:9 (720x576) VBR, Auto Letterboxed
    Audio:
  • Russian (Dolby AC3, 2 ch)
  • English (Dolby AC3, 2 ch)
    Subtitles:
  • Russian
    VTS_03 :
    Play Length: 00:00:01+00:01:58+00:00:01
    Video: PAL 4:3 (720x576) VBR
    Audio:
  • English (Dolby AC3, 2 ch)
    VTS_04 :
    Play Length: 00:00:01+00:01:42+00:00:01+00:00:01+00:01:53+00:00:01+00:00:01+00:00:30+00:00:01
    Video: PAL 16:9 (720x576) VBR, Auto Letterboxed
    Audio:
  • Not specified (Dolby AC3, 2 ch)
    VTS_05 :
    Play Length: 00:00:01+00:01:22+00:00:01
    Video: PAL 4:3 (720x576) VBR
    Audio:
  • English (Dolby AC3, 2 ch)
    VTS_06 :
    Play Length: 00:00:01+00:02:09+00:00:01
    Video: PAL 16:9 (720x576) VBR, Auto Letterboxed
    Audio:
  • English (Dolby AC3, 2 ch)
    VTS_07 :
    Play Length: 00:00:01+00:01:27+00:00:01
    Video: PAL 4:3 (720x576) VBR
    Audio:
  • English (Dolby AC3, 2 ch)
    VTS_08 :
    Play Length: 00:00:01+00:02:35+00:00:01
    Video: PAL 16:9 (720x576) VBR, Auto Letterboxed
    Audio:
  • Francais (Dolby AC3, 2 ch)
    VTS_09 :
    Play Length: 00:00:01+00:02:18+00:00:01
    Video: PAL 16:9 (720x576) VBR, Auto Letterboxed
    Audio:
  • Francais (Dolby AC3, 2 ch)
    VTS_10 :
    Play Length: 00:00:22
    Video: PAL 16:9 (720x576) VBR, Auto Letterboxed
    Audio:
  • Russian (Dolby AC3, 2 ch)

MediaInfo

Общее
Полное имя : M:\Gromila_i_skorokhod_DVD9\VIDEO_TS\VTS_02_1.VOB
Формат : MPEG-PS
Размер файла : 1024 Мбайт
Продолжительность : 18 м.
Режим общего битрейта : Переменный
Общий поток : 7629 Кбит/сек
Библиотека кодирования : (c) 1998-2008 Womble Multimedia, Inc. / MPEG Video Wizard (12/2008) / Mar 31 2009
Видео
Идентификатор : 224 (0xE0)
Формат : MPEG Video
Версия формата : Version 2
Профиль формата : [email protected]
Параметр BVOP формата : Да
Параметр матрицы формата : По умолчанию
Параметр GOP формата : M=3, N=12
Продолжительность : 18 м.
Вид битрейта : Переменный
Битрейт : 7093 Кбит/сек
Максимальный битрейт : 9000 Кбит/сек
Ширина : 720 пикселей
Высота : 576 пикселей
Соотношение сторон : 16:9
Частота кадров : 25,000 кадров/сек
Стандарт вещания : PAL
Цветовое пространство : YUV
Субдискретизация насыщенности : 4:2:0
Битовая глубина : 8 бит
Тип развёртки : Чересстрочная
Порядок развёртки : Верхнее поле первое
Метод сжатия : С потерями
Бит/(Пиксели*Кадры) : 0.684
TimeCode_FirstFrame : 00:00:00:00
TimeCode_Source : Group of pictures header
Размер потока : 952 Мбайт (93%)
Библиотека кодирования : (c) 1998-2008 Womble Multimedia, Inc. / MPEG Video Wizard (12/2008) / Mar 31 2009
Аудио #1
Идентификатор : 189 (0xBD)-128 (0x80)
Формат : AC-3
Формат/Информация : Audio Coding 3
Расширение режима : CM (complete main)
Параметр Endianness формата : Big
Режим смешивания : DVD-Video
Продолжительность : 18 м.
Вид битрейта : Постоянный
Битрейт : 192 Кбит/сек
Каналы : 2 канала
Расположение каналов : Front: L R
Частота : 48,0 КГц
Битовая глубина : 16 бит
Метод сжатия : С потерями
Размер потока : 25,8 Мбайт (3%)
Аудио #2
Идентификатор : 189 (0xBD)-129 (0x81)
Формат : AC-3
Формат/Информация : Audio Coding 3
Расширение режима : CM (complete main)
Параметр Endianness формата : Big
Режим смешивания : DVD-Video
Продолжительность : 18 м.
Вид битрейта : Постоянный
Битрейт : 192 Кбит/сек
Каналы : 2 канала
Расположение каналов : Front: L R
Частота : 48,0 КГц
Битовая глубина : 16 бит
Метод сжатия : С потерями
Размер потока : 25,8 Мбайт (3%)
Текст
Идентификатор : 189 (0xBD)-32 (0x20)
Формат : RLE
Формат/Информация : Run-length encoding
Режим смешивания : DVD-Video
Продолжительность : 18 м.
Задержка видео : 1 с. 240 мс.
Меню
Other forum [Profile] [PM]
Display posts from previous:    
Reply to topic

The time now is: Today 11:52

All times are GMT + 3 Hours



You cannot post new topics in this forum
You cannot reply to topics in this forum
You cannot edit your posts in this forum
You cannot delete your posts in this forum
You cannot vote in polls in this forum
You cannot attach files in this forum
You cannot download files in this forum