Today is a free download without charge Download

Мой друг / Mon pote (Марк Эспозито / Marc Esposito) [2010, Франция, комедия, драма, BDRip 720p] VO (М.Чадов) + Sub Rus + Original Fre

Reply to topic
 
Author
Message

Omen ®

Longevity: 8 years 5 months

Posts: 181087

Торрент-статистика

Post 06-Jun-2013 16:53

[Quote]

Мой друг / Mon pote
Страна: Франция
Жанр: комедия, драма
Год выпуска: 2010
Продолжительность: 01:41:06
Перевод: Одноголосый закадровый М.Чадов
Cубтитры: русские
Оригинальная аудиодорожка: французский
Режиссер: Марк Эспозито / Marc Esposito
В ролях: Эдуар Баэр / Edouard Baer, Бенуа Мажимель / Benoit Magimel, Атман Келиф / Atmen Kelif, Диана Бонно / Diane Bonnot, Леони Симага / Leonie Simaga, Альбан Дютерк / Albane Duterc
Описание: Виктор владелец автомобильного журнала. Однажды, его приглашают в тюрьму рассказать о своей работе. Там он встречает бывшего угонщика Брюно, который просится на работу в журнал. Виктор принимает предложение...
Доп. информация: Огромное СПАСИБО за перевод Ольге Першиной и спонсору озвучки будулайроманов !!!
з.ы. Отдельный вагон кисточек Михаилу за прекрасную озвучку!!!
Сэмпл: http://multi-up.com/872938
Тип релиза: BDRip 720p
Контейнер: MKV
Видео: MPEG-4 AVC, 1280x688, 4674 кбит/сек, 25.00 fps
Аудио: 48 kHz, DTS, 3/2 (L,C,R,l,r) + LFE ch, ~1510.00 kbps avg VO М.Чадов
Аудио 2: 48 kHz, DTS, 3/2 (L,C,R,l,r) + LFE ch, ~1510.00 kbps avg original
Формат субтитров: softsub (SRT)

MediaInfo

ФИЛЬМЫ\МОЙ ДРУГ (VO+SUB).2010.FRENCH.720p.BluRay DTS.x264-lord_i_74.mkv
Формат : Matroska
Версия формата : Version 2
Размер файла : 5,44 Гбайт
Продолжительность : 1 ч. 41 м.
Общий поток : 7696 Кбит/сек
Дата кодирования : UTC 2013-06-06 04:33:50
Программа кодирования : mkvmerge v5.0.1 ('Es ist Sommer') built on Oct 9 2011 11:55:43
Библиотека кодирования : libebml v1.2.2 + libmatroska v1.3.0
Видео
Идентификатор : 1
Формат : AVC
Формат/Информация : Advanced Video Codec
Профиль формата : [email protected]
Параметр CABAC формата : Да
Параметр ReFrames формата : 5 кадров
Идентификатор кодека : V_MPEG4/ISO/AVC
Продолжительность : 1 ч. 41 м.
Битрейт : 4674 Кбит/сек
Ширина : 1280 пикс.
Высота : 688 пикс.
Соотношение сторон : 1,860
Частота кадров : 25,000 кадр/сек
Цветовое пространство : YUV
Подвыборка цветности : 4:2:0
Битовая глубина : 8 бит
Тип развёртки : Прогрессивная
Бит/(Пиксели*Кадры) : 0.212
Размер потока : 3,19 Гбайт (59%)
Заголовок : Mon.Pote.2010.FRENCH.720p.BluRay DTS.x264-FHD.Up by kiwiloup
Библиотека кодирования : x264 core 114 r1924 08d04a4
Настройки программы : cabac=1 / ref=5 / deblock=1:0:0 / analyse=0x3:0x113 / me=umh / subme=7 / psy=1 / psy_rd=1.00:0.00 / mixed_ref=1 / me_range=16 / chroma_me=1 / trellis=1 / 8x8dct=1 / cqm=0 / deadzone=21,11 / fast_pskip=0 / chroma_qp_offset=-2 / threads=12 / sliced_threads=0 / nr=0 / decimate=1 / interlaced=0 / constrained_intra=0 / bframes=3 / b_pyramid=2 / b_adapt=1 / b_bias=0 / direct=1 / weightb=1 / open_gop=0 / weightp=2 / keyint=250 / keyint_min=25 / scenecut=40 / intra_refresh=0 / rc_lookahead=40 / rc=2pass / mbtree=1 / bitrate=4674 / ratetol=1.0 / qcomp=0.60 / qpmin=0 / qpmax=69 / qpstep=4 / cplxblur=20.0 / qblur=0.5 / ip_ratio=1.40 / aq=1:1.00
Язык : French
Аудио #1
Идентификатор : 2
Формат : DTS
Формат/Информация : Digital Theater Systems
Идентификатор кодека : A_DTS
Продолжительность : 1 ч. 41 м.
Вид битрейта : Постоянный
Битрейт : 1510 Кбит/сек
Каналы : 6 каналов
Расположение каналов : Front: L C R, Side: L R, LFE
Частота : 48,0 КГц
Битовая глубина : 24 бит
Метод сжатия : С потерями
Размер потока : 1,07 Гбайт (20%)
Заголовок : VO М.Чадов по переводу О.Першиной
Язык : Russian
Аудио #2
Идентификатор : 3
Формат : DTS
Формат/Информация : Digital Theater Systems
Идентификатор кодека : A_DTS
Продолжительность : 1 ч. 41 м.
Вид битрейта : Постоянный
Битрейт : 1510 Кбит/сек
Каналы : 6 каналов
Расположение каналов : Front: L C R, Side: L R, LFE
Частота : 48,0 КГц
Битовая глубина : 24 бит
Метод сжатия : С потерями
Размер потока : 1,07 Гбайт (20%)
Заголовок : DTS 5.1
Язык : French
Текст
Идентификатор : 4
Формат : UTF-8
Идентификатор кодека : S_TEXT/UTF8
Идентификатор кодека/Информация : UTF-8 Plain Text
Заголовок : Sub Animat, grafd
Язык : Russian

Скриншоты

]
Other forum [Profile] [PM]
Display posts from previous:    
Reply to topic

The time now is: Today 02:54

All times are GMT + 3 Hours



You cannot post new topics in this forum
You cannot reply to topics in this forum
You cannot edit your posts in this forum
You cannot delete your posts in this forum
You cannot vote in polls in this forum
You cannot attach files in this forum
You cannot download files in this forum