Today is a free download without charge Download

Медальон / The Medallion / Highbinders (Гордон Чан / Gordon Chan) [2003, Гонконг, США, фэнтези, боевик, триллер, комедия, BDRip 720p] Dub (R5) + 3xMVO + AVO (A. Карповский) + Original (Eng) + Subs (Rus, Eng)

Reply to topic
 
Author
Message

Omen ®

Longevity: 8 years 5 months

Posts: 181087

Торрент-статистика

Post 06-Jun-2013 16:53

[Quote]

Медальон / The Medallion / Highbinders Страна: Гонконг, США
Студия: Emperor Multimedia Group (EMG), Golden Port Productions Ltd., ...
Жанр: фэнтези, боевик, триллер, комедия
Год выпуска: 2003
Продолжительность: 01:28:27
Перевод:
  • Профессиональный (дублированный) R5
  • Профессиональный (многоголосый закадровый)
  • Профессиональный (многоголосый закадровый)
  • Профессиональный (многоголосый закадровый) СТС
  • Авторский (Одноголосый закадровый) A. Карповский
Cубтитры: английские, английские (SDH), русские
Оригинальная аудиодорожка: английский
Режиссер: Гордон Чан / Gordon Chan
В ролях: Джеки Чан, Ли Эванс, Клэр Форлани, Джулиан Сэндс, Джон Рис-Дэвис, Энтони Вонг Чау-Санг, Кристи Чунг, Йохан Майерс, Алекс Бао, Сиу-Минг Лау
Описание:
Гонконгскому полицейскому Эдди Янгу удается уцелеть в абсолютно безнадежной ситуации. Жизнь ему спасает таинственный магический медальон. Это старинное украшение наделяет Эдди невероятной, сверхчеловеческой мощью, превратив в непобедимого воина. Янг вместе со своей напарницей Николь пытается разгадать тайну медальона, а заодно и дать отпор членам древнего воинского ордена, пытающимся завладеть могущественной реликвией…
- || -Тип релиза: BDRip 720p (рип от TayTO)
Контейнер: MKV
Видео: AVC (x264), 1280x534 (2,40:1) at 23,976 fps, 5150 Кbps, 0.314 bpp
Аудио 1: AC3; 448 Kbps; CBR; 6 ch; 48 khz | Дубляж |
Аудио 2: AC3; 384 Kbps; CBR; 6 ch; 48 khz | P, MVO |
Аудио 3: FLAC; ~703 Kbps; VBR; 2 ch; 48 khz; 16 bit | P, MVO |
Аудио 4: AC3; 192 Kbps; CBR; 2 ch; 48 khz | P, MVO - СТС |
Аудио 5: AC3; 192 Kbps; CBR; 2 ch; 48 khz | AVO - A. Карповский |
Аудио 6: FLAC; ~678 Kbps; VBR; 2 ch; 48 khz; 16 bit | Английский |
Аудио 7: AC3; 192 Kbps; CBR; 2 ch; 48 khz | Английский | - Commentary: Продюсера
Формат субтитров: softsub (SRT)

Скриншоты || x264 Info || MediaInfo || Notes

Notes:

Цитата:
  • Аудио дорожка №1 взята с этой раздачи, thx: Summer Wind
  • Аудио дорожка №2 взята с этой раздачи, thx: Dreven
  • Аудио дорожка №3 получена наложением выделенного голоса на декодированные каналы FLAC
  • Аудио дорожка №4 - thx: за исходник Slim9174; синхронизация akchurin.a2011 (На пропущенном при записи перевода с телеканала промежутке 00:02:26 - 00:06:37 имеется вставка с дорожки №2)
  • Аудио дорожка №5 взята с этой раздачи, thx: kro44i

MediaInfo

Код:
Общее
Уникальный идентификатор                 : 196006325788797884984854092944295142530 (0x937571F973E623CDAD835AF9BBC12482)
Полное имя                               : Медальон.2003.D.720p.BluRay.x264-TayTO.mkv
Формат                                   : Matroska
Версия формата                           : Version 4 / Version 2
Размер файла                             : 4,91 Гбайт
Продолжительность                        : 1 ч. 28 м.
Режим общего битрейта                    : Переменный
Общий поток                              : 7940 Кбит/сек
Название фильма                          : profile.php?mode=viewprofile&u=22488948
Дата кодирования                         : UTC 2013-06-06 05:22:55
Программа кодирования                    : mkvmerge v6.2.0 ('Promised Land') built on Apr 28 2013 12:22:01
Библиотека кодирования                   : libebml v1.3.0 + libmatroska v1.4.0
Видео
Идентификатор                            : 1
Формат                                   : AVC
Формат/Информация                        : Advanced Video Codec
Профиль формата                          : [email protected]
Параметр CABAC формата                   : Да
Параметр ReFrames формата                : 12 кадров
Идентификатор кодека                     : V_MPEG4/ISO/AVC
Продолжительность                        : 1 ч. 28 м.
Номинальный битрейт                      : 5150 Кбит/сек
Ширина                                   : 1280 пикселей
Высота                                   : 534 пикселя
Соотношение сторон                       : 2,40:1
Режим частоты кадров                     : Постоянный
Частота кадров                           : 23,976 кадра/сек
Цветовое пространство                    : YUV
Субдискретизация насыщенности            : 4:2:0
Битовая глубина                          : 8 бит
Тип развёртки                            : Прогрессивная
Бит/(Пиксели*Кадры)                      : 0.314
Библиотека кодирования                   : x264 core 125 r2208 d9d2288
Настройки программы                      : cabac=1 / ref=12 / deblock=1:-3:-3 / analyse=0x3:0x113 / me=tesa / subme=11 / psy=1 / psy_rd=1.00:0.00 / mixed_ref=1 / me_range=16 / chroma_me=1 / trellis=2 / 8x8dct=1 / cqm=0 / deadzone=21,11 / fast_pskip=0 / chroma_qp_offset=-2 / threads=12 / lookahead_threads=2 / sliced_threads=0 / nr=0 / decimate=0 / interlaced=0 / bluray_compat=0 / constrained_intra=0 / bframes=8 / b_pyramid=2 / b_adapt=2 / b_bias=0 / direct=3 / weightb=1 / open_gop=0 / weightp=2 / keyint=250 / keyint_min=23 / scenecut=40 / intra_refresh=0 / rc=2pass / mbtree=0 / bitrate=5150 / ratetol=1.0 / qcomp=0.60 / qpmin=0 / qpmax=69 / qpstep=4 / cplxblur=20.0 / qblur=0.5 / ip_ratio=1.40 / pb_ratio=1.30 / aq=1:0.70
Язык                                     : English
Default                                  : Да
Forced                                   : Нет
Аудио #1
Идентификатор                            : 2
Формат                                   : AC-3
Формат/Информация                        : Audio Coding 3
Расширение режима                        : CM (complete main)
Параметр Endianness формата              : Big
Идентификатор кодека                     : A_AC3
Продолжительность                        : 1 ч. 28 м.
Вид битрейта                             : Постоянный
Битрейт                                  : 448 Кбит/сек
Каналы                                   : 6 каналов
Расположение каналов                     : Front: L C R, Side: L R, LFE
Частота                                  : 48,0 КГц
Битовая глубина                          : 16 бит
Метод сжатия                             : С потерями
Размер потока                            : 283 Мбайт (6%)
Заголовок                                : DUB R5
Язык                                     : Russian
Default                                  : Да
Forced                                   : Нет
Аудио #2
Идентификатор                            : 3
Формат                                   : AC-3
Формат/Информация                        : Audio Coding 3
Расширение режима                        : CM (complete main)
Параметр Endianness формата              : Big
Идентификатор кодека                     : A_AC3
Продолжительность                        : 1 ч. 28 м.
Вид битрейта                             : Постоянный
Битрейт                                  : 384 Кбит/сек
Каналы                                   : 6 каналов
Расположение каналов                     : Front: L C R, Side: L R, LFE
Частота                                  : 48,0 КГц
Битовая глубина                          : 16 бит
Метод сжатия                             : С потерями
Размер потока                            : 243 Мбайт (5%)
Заголовок                                : P, MVO (?)
Язык                                     : Russian
Default                                  : Нет
Forced                                   : Нет
Аудио #3
Идентификатор                            : 4
Формат                                   : FLAC
Формат/Информация                        : Free Lossless Audio Codec
Идентификатор кодека                     : A_FLAC
Продолжительность                        : 1 ч. 28 м.
Вид битрейта                             : Переменный
Каналы                                   : 2 канала
Частота                                  : 48,0 КГц
Битовая глубина                          : 16 бит
Заголовок                                : P, MVO (?) // ~703
Библиотека кодирования                   : libFLAC 1.2.1 (UTC 2007-09-17)
Язык                                     : Russian
Default                                  : Нет
Forced                                   : Нет
Аудио #4
Идентификатор                            : 5
Формат                                   : AC-3
Формат/Информация                        : Audio Coding 3
Расширение режима                        : CM (complete main)
Параметр Endianness формата              : Big
Идентификатор кодека                     : A_AC3
Продолжительность                        : 1 ч. 28 м.
Вид битрейта                             : Постоянный
Битрейт                                  : 192 Кбит/сек
Каналы                                   : 2 канала
Расположение каналов                     : Front: L R
Частота                                  : 48,0 КГц
Битовая глубина                          : 16 бит
Метод сжатия                             : С потерями
Размер потока                            : 121 Мбайт (2%)
Заголовок                                : P, MVO [СТС]
Язык                                     : Russian
Default                                  : Нет
Forced                                   : Нет
Аудио #5
Идентификатор                            : 6
Формат                                   : AC-3
Формат/Информация                        : Audio Coding 3
Расширение режима                        : CM (complete main)
Параметр Endianness формата              : Big
Идентификатор кодека                     : A_AC3
Продолжительность                        : 1 ч. 28 м.
Вид битрейта                             : Постоянный
Битрейт                                  : 192 Кбит/сек
Каналы                                   : 2 канала
Расположение каналов                     : Front: L R
Частота                                  : 48,0 КГц
Битовая глубина                          : 16 бит
Метод сжатия                             : С потерями
Размер потока                            : 121 Мбайт (2%)
Заголовок                                : AVO [A. Карповский]
Язык                                     : Russian
Default                                  : Нет
Forced                                   : Нет
Аудио #6
Идентификатор                            : 7
Формат                                   : FLAC
Формат/Информация                        : Free Lossless Audio Codec
Идентификатор кодека                     : A_FLAC
Продолжительность                        : 1 ч. 28 м.
Вид битрейта                             : Переменный
Каналы                                   : 2 канала
Частота                                  : 48,0 КГц
Битовая глубина                          : 16 бит
Заголовок                                : ~678
Библиотека кодирования                   : libFLAC 1.2.1 (UTC 2007-09-17)
Язык                                     : English
Default                                  : Нет
Forced                                   : Нет
Аудио #7
Идентификатор                            : 8
Формат                                   : AC-3
Формат/Информация                        : Audio Coding 3
Профиль формата                          : Dolby Digital
Расширение режима                        : CM (complete main)
Параметр Endianness формата              : Big
Идентификатор кодека                     : A_AC3
Продолжительность                        : 1 ч. 28 м.
Вид битрейта                             : Постоянный
Битрейт                                  : 192 Кбит/сек
Каналы                                   : 2 канала
Расположение каналов                     : Front: L R
Частота                                  : 48,0 КГц
Битовая глубина                          : 16 бит
Метод сжатия                             : С потерями
Размер потока                            : 121 Мбайт (2%)
Заголовок                                : Commentary by Producer
Язык                                     : English
Default                                  : Нет
Forced                                   : Нет
Текст #1
Идентификатор                            : 9
Формат                                   : UTF-8
Идентификатор кодека                     : S_TEXT/UTF8
Идентификатор кодека/Информация          : UTF-8 Plain Text
Язык                                     : Russian
Default                                  : Нет
Forced                                   : Нет
Текст #2
Идентификатор                            : 10
Формат                                   : UTF-8
Идентификатор кодека                     : S_TEXT/UTF8
Идентификатор кодека/Информация          : UTF-8 Plain Text
Язык                                     : English
Default                                  : Нет
Forced                                   : Нет
Текст #3
Идентификатор                            : 11
Формат                                   : UTF-8
Идентификатор кодека                     : S_TEXT/UTF8
Идентификатор кодека/Информация          : UTF-8 Plain Text
Заголовок                                : SDH
Язык                                     : English
Default                                  : Нет
Forced                                   : Нет
Меню
00:00:00.000                             : en:START
00:06:53.000                             : en:THE CHOSEN ONE
00:10:41.000                             : en:SEWER RATS
00:17:36.000                             : en:ALL HANDS ON DECK
00:20:57.000                             : en:NICOLE JAMES
00:24:22.000                             : en:THE TOP MAN
00:30:28.000                             : en:DUBLIN STREET TOUR
00:36:00.000                             : en:UNDER ARREST?
00:42:47.000                             : en:THE SECOND COMING OF EDDIE YANG
00:47:40.000                             : en:KIDNAPPERS
00:54:13.000                             : en:THE HOLY GRAIL OF EASTERN MYTHOLOGY
00:59:24.000                             : en:COPTER SNATCH
01:04:32.000                             : en:CARLOTTE FOR THE DEFENSE
01:11:55.000                             : en:EDDIE VS. SNAKEHEAD'S MEN
01:16:24.000                             : en:DESTINY CALLS
01:20:10.000                             : en:END CREDITS AND OUTTAKES

x264 Info

x264 [info]: frame I:1221 Avg QP:16.13 size: 92477
x264 [info]: frame P:31048 Avg QP:18.71 size: 43360
x264 [info]: frame B:94979 Avg QP:20.86 size: 20591
x264 [info]: consecutive B-frames: 3.5% 5.3% 10.1% 25.9% 17.3% 25.9% 6.1% 3.4% 2.5%

Source vs Encode

Remux.....vs....TayTO.....vs....HALCYON (scene).....vs....aAF HDTV (scene)


Other forum [Profile] [PM]
Display posts from previous:    
Reply to topic

The time now is: Today 05:09

All times are GMT + 3 Hours



You cannot post new topics in this forum
You cannot reply to topics in this forum
You cannot edit your posts in this forum
You cannot delete your posts in this forum
You cannot vote in polls in this forum
You cannot attach files in this forum
You cannot download files in this forum