Today is a free download without charge Download

KanZer - Игрушки [2013, Rock, HDTV 720p]

Reply to topic
 
Author
Message

Omen ®

Longevity: 8 years 4 months

Posts: 181087

Торрент-статистика

Post 06-Jun-2013 12:50

[Quote]

KanZer - Игрушки
Жанр: Rock
Продолжительность: 03:46
Год выпуска: 2013
Описание: KanZer - Питерская альтернативная группа образованная в начале 2012 года. На данный момент коллектив успел выпустить полноценный альбом "Replication", выход которого состоялся в октябре 2012.
Сейчас музыканты работают над записью нового альбома.
Стиль группы варьируется от инди до металла.
Доп. информация: vk.com/kanzerband
Качество: HDTV 720p
Контейнер: AVI
Видео кодек: XviD
Аудио кодек: PCM
Видео: 1280*720, 16:9, 29.970 fps, 24.4 Mbps
Аудио: PCM, 1 411.2 Kbps, 44.1 KHz, 16 bits

Отчёт MediaInfo / BDInfo

GeneralComplete name : D:\KanZer - Игрушки.aviFormat : AVIFormat/Info : Audio Video InterleaveFile size : 704 MiBDuration : 3mn 46sOverall bit rate : 26.0 MbpsTCOD : 0TCDO : 2269934333
VideoID : 0Format : MPEG-4 VisualFormat profile : Advanced [email protected] settings, BVOP : 2Format settings, QPel : NoFormat settings, GMC : No warppointsFormat settings, Matrix : Default (H.263)Muxing mode : Packed bitstreamCodec ID : XVIDCodec ID/Hint : XviDDuration : 3mn 46sBit rate : 24.4 MbpsWidth : 1 280 pixelsHeight : 720 pixelsDisplay aspect ratio : 16:9Frame rate : 29.970 fpsColor space : YUVChroma subsampling : 4:2:0Bit depth : 8 bitsScan type : ProgressiveCompression mode : LossyBits/(Pixel*Frame) : 0.885Stream size : 661 MiB (94%)Writing library : XviD 64
AudioID : 1Format : PCMFormat settings, Endianness : LittleFormat settings, Sign : SignedCodec ID : 1Duration : 3mn 46sBit rate mode : ConstantBit rate : 1 411.2 KbpsChannel(s) : 2 channelsSampling rate : 44.1 KHzBit depth : 16 bitsStream size : 38.2 MiB (5%)Interleave, duration : 33 ms (1.00 video frame)Interleave, preload duration : 33 ms

Скриншоты

Other forum [Profile] [PM]
Display posts from previous:    
Reply to topic

The time now is: Today 17:21

All times are GMT + 3 Hours



You cannot post new topics in this forum
You cannot reply to topics in this forum
You cannot edit your posts in this forum
You cannot delete your posts in this forum
You cannot vote in polls in this forum
You cannot attach files in this forum
You cannot download files in this forum